<?xml version="1.0" standalone="no"?>
<!DOCTYPE svg PUBLIC "-//W3C//DTD SVG 1.1//EN" "http://www.w3.org/Graphics/SVG/1.1/DTD/svg11.dtd" >
<svg xmlns="http://www.w3.org/2000/svg">
<metadata></metadata>
<defs>
<font id="comfortaalight" horiz-adv-x="1280" >
<font-face units-per-em="2048" ascent="1638" descent="-410" />
<missing-glyph horiz-adv-x="600" />
<glyph horiz-adv-x="2048" />
<glyph horiz-adv-x="2048" />
<glyph unicode="&#xd;" horiz-adv-x="560" />
<glyph unicode=" "  horiz-adv-x="600" />
<glyph unicode="&#x09;" horiz-adv-x="600" />
<glyph unicode="&#xa0;" horiz-adv-x="600" />
<glyph unicode="!" horiz-adv-x="400" d="M100 104q0 44 30 73q30 30 74 30t73 -30q30 -29 30 -73t-30 -74q-29 -30 -73 -30t-74 30t-30 74zM141 393v1146q0 26 18.5 44t44.5 18t44 -18t18 -44v-1146q0 -26 -18 -42q-18 -19 -44 -19t-44 19q-19 17 -19 42z" />
<glyph unicode="&#x22;" horiz-adv-x="560" d="M99 1539q0 26 18 44t44 18t44 -18t18 -44l-21 -312q0 -17 -12 -29t-29 -12t-29.5 12t-12.5 29zM347 1539q0 26 18.5 44t44.5 18t44 -18t18 -44l-21 -312q0 -17 -12 -29t-29 -12t-29.5 12t-12.5 29z" />
<glyph unicode="#" d="M85 544q1 39 25.5 58.5t51.5 19.5h184l65 374h-190q-25 0 -38.5 17.5t-9.5 41.5v-1q5 27 27.5 46.5t50.5 19.5h183l76 432q5 27 27 46.5t50 19.5q23 0 37 -17.5t10 -41.5l-76 -439h291l76 432q5 27 27 46.5t49 19.5q24 0 38 -17.5t10 -41.5l-77 -439h191q24 0 36 -15 t12 -32q-2 -38 -26.5 -57.5t-51.5 -19.5h-183l-66 -374h191q23 0 37.5 -17t10.5 -41q-6 -27 -28 -46.5t-49 -19.5h-184l-76 -433q-6 -26 -28 -45.5t-49 -19.5q-23 0 -37.5 17t-10.5 41l78 440h-291l-77 -433q-5 -26 -27.5 -45.5t-49.5 -19.5q-23 0 -37.5 17t-10.5 41l78 440 h-191q-24 0 -36 14t-12 32zM469 622h292l65 374h-291z" />
<glyph unicode="$" horiz-adv-x="1060" d="M94 256q0 26 18 44t44 18q34 0 53 -28q13 -20 31 -40q46 -54 114 -87t155 -40v709q-149 29 -240 135q-45 54 -69 118t-23 169q7 80 42.5 148t95.5 120q18 14 40.5 27.5t48 25.5t52.5 21.5t53 15.5v109q0 26 18 44.5t44 18.5t44 -18.5t18 -44.5v-110q75 -14 133.5 -48 t104.5 -86q23 -24 38 -53q9 -17 9 -34q0 -26 -18 -44.5t-44 -18.5q-25 0 -39 16q-10 11 -21 26.5t-21 26.5q-48 57 -142 89v-546q72 -20 133 -59.5t108 -93.5q53 -66 82.5 -143t29.5 -159q-7 -144 -50 -225.5t-118 -144.5q-79 -65 -185 -98v-120q0 -26 -18 -44t-44 -18 t-44 18t-18 44v105q-211 -1 -364 168q-20 22 -37 47q-14 18 -14 40zM301 1244q-4 -54 13 -104t52 -93q23 -28 59 -50.5t84 -38.5v528q-35 -11 -64 -26.5t-49 -32.5q-40 -36 -65.5 -83.5t-29.5 -99.5zM633 145q57 22 104 64q51 46 85.5 108.5t38.5 163.5q0 129 -83 225 q-26 30 -62.5 55.5t-82.5 48.5v-665z" />
<glyph unicode="%" horiz-adv-x="1760" d="M87 1208q0 163 116 279q115 115 278 115q164 0 279 -115q116 -116 116 -279q0 -165 -116 -279q-114 -115 -279 -115q-164 0 -278 115q-116 114 -116 279zM212 1208q0 -112 79 -191t190 -79t190 79q80 80 80 191t-80 189q-80 80 -190 80t-190 -80q-79 -78 -79 -189z M253 62q0 24 16 43l1156 1469q12 13 24.5 20t27.5 7q26 0 44 -18t18 -44q0 -22 -12 -38l-1163 -1478q-22 -23 -48 -23t-44.5 18t-18.5 44zM917 394q0 164 115 279t279 115t279 -115t115 -279t-115 -279t-279 -115t-279 115t-115 279zM1041 394q0 -112 79 -191t191 -79 q111 0 190 79q80 80 80 191q0 110 -80 190t-190 80q-111 0 -191 -80q-79 -79 -79 -190z" />
<glyph unicode="&#x26;" horiz-adv-x="1440" d="M90 452q0 88 49 170.5t139 154.5l129 100l-131 130q-103 105 -103 248q0 145 103 247q103 103 250 103q146 0 249 -103q104 -101 104 -247q0 -154 -145 -278l1 1l-144 -109l400 -397l198 210q16 17 42 17t44 -17.5t18 -43.5q0 -23 -14 -42l-201 -210l282 -283 q16 -17 16 -41q0 -26 -18 -44t-44 -18q-25 0 -43 17l-279 278l-159 -168h1q-128 -127 -308 -127t-308 127t-128 325zM215 452q0 -147 91 -238q92 -91 220 -91t220 91l158 168l-412 411l-132 -100q-145 -112 -145 -241zM298 1255q0 -93 66 -160l142 -142l137 108q57 45 84 93 t27 101q0 91 -67 160q-67 66 -161 66q-95 0 -162 -66q-66 -68 -66 -160z" />
<glyph unicode="'" horiz-adv-x="320" d="M101 1540q0 26 18 44t44 18t44 -18t18 -44l-21 -312q0 -17 -12 -29t-29 -12t-29.5 12t-12.5 29z" />
<glyph unicode="(" horiz-adv-x="560" d="M99 565q0 251 60.5 499t185.5 501q6 14 15 23q18 18 45 18q25 0 42 -16.5t18 -40.5q-1 -19 -11 -40q-235 -474 -235 -945q0 -240 59.5 -476t177.5 -474q10 -19 10 -36q0 -24 -18 -41t-43 -17q-26 0 -44 18q-9 11 -17 25q-124 253 -184.5 502t-60.5 500z" />
<glyph unicode=")" horiz-adv-x="560" d="M99 -422q0 17 10 36q118 238 177 474t59 476q0 471 -234 945q-10 21 -11 40q1 24 17.5 40.5t42.5 16.5q27 0 44 -18q9 -9 15 -23q125 -253 186 -501t61 -499t-61 -500t-185 -502q-8 -14 -17 -25q-17 -18 -43 -18t-43.5 17t-17.5 41z" />
<glyph unicode="*" horiz-adv-x="780" d="M102 1374q1 11 4 20q8 25 31 35.5t46 2.5q13 -5 21 -11l177 -103l-42 200q-3 10 -3 22q0 26 18 44t44 18t44 -18t18 -44q0 -12 -3 -22l-44 -201l180 105q10 6 19 10q25 8 48 -2.5t32 -35.5q4 -11 4 -21q0 -15 -6 -27q-11 -24 -35 -31q-10 -4 -23 -5l-208 -21l162 -140 q9 -7 15 -16q6 -8 10 -19t4 -19q0 -14 -6.5 -27t-17.5 -22q-20 -14 -48 -13q-25 3 -40 23q-6 8 -11 18l-93 195l-95 -194q-5 -12 -12 -21q-16 -22 -48 -22q-22 1 -38 14q-23 18 -23 49q0 22 13 38l16 16l162 139l-208 22q-14 1 -23 5q-25 11 -35 31q-6 14 -6 28z" />
<glyph unicode="+" horiz-adv-x="1120" d="M79 809q0 26 18.5 44t44.5 18h352v353q0 26 18 44t44 18t44.5 -18t18.5 -44v-353h352q26 0 44 -18t18 -44t-18 -44t-44 -18h-352v-353q0 -26 -18.5 -44t-44.5 -18t-44 18t-18 44v353h-352q-26 0 -44.5 18t-18.5 44z" />
<glyph unicode="," horiz-adv-x="400" d="M100 104q0 44 30 73q30 30 74 30t73 -30q30 -29 30 -73q0 -198 -87 -330q-14 -23 -37 -23q-17 0 -29.5 12.5t-12.5 29.5q1 16 12 29q37 41 37 87q0 28 -14.5 58.5t-45.5 62.5q-30 30 -30 74z" />
<glyph unicode="-" horiz-adv-x="800" d="M79 560q0 26 18.5 44t44.5 18h497q26 0 44.5 -18t18.5 -44t-18.5 -44t-44.5 -18h-497q-26 0 -44.5 18t-18.5 44z" />
<glyph unicode="." horiz-adv-x="400" d="M100 104q0 44 30 73q30 30 74 30t73 -30q30 -29 30 -73t-30 -74q-29 -30 -73 -30t-74 30t-30 74z" />
<glyph unicode="/" horiz-adv-x="960" d="M82 -104q0 16 5 27l665 1661q4 10 11 17q19 17 45 17t44 -18t18 -44q0 -15 -6 -28l-664 -1660q-4 -10 -10 -16q-20 -18 -46 -18t-44 18t-18 44z" />
<glyph unicode="0" horiz-adv-x="1120" d="M80 803q0 238 52 412t146 276q57 53 128 83.5t151 30.5q81 0 151.5 -30.5t127.5 -83.5q95 -102 146.5 -276t51.5 -412q0 -239 -51.5 -413t-146.5 -276q-57 -53 -127.5 -83.5t-151.5 -30.5q-80 0 -151 30.5t-128 83.5q-94 102 -146 276t-52 413zM205 803q0 -420 161 -601 q78 -79 191 -79q111 0 191 79q162 182 162 601q0 417 -162 598q-81 80 -191 80q-112 0 -191 -80q-161 -180 -161 -598z" />
<glyph unicode="1" horiz-adv-x="560" d="M80 1457q0 26 18 44q8 8 20 14l249 83q14 4 24 4q26 0 44 -18t18 -44v-1478q0 -26 -18 -44t-44 -18t-44.5 18t-18.5 44v1390l-161 -52q-15 -6 -25 -6q-26 0 -44 18.5t-18 44.5z" />
<glyph unicode="2" horiz-adv-x="1120" d="M80 62q0 24 19 45l708 769q49 51 76 114.5t27 134.5q0 146 -104 249q-102 103 -249 103q-146 0 -250 -103q-102 -104 -102 -249q0 -26 -18 -44t-44 -18t-44.5 18t-18.5 44q0 196 139 337q142 140 338 140q199 0 337 -140q140 -139 140 -337q0 -199 -141 -339l-609 -662 h688q26 0 44 -18t18 -44t-18 -44t-44 -18h-829q-26 0 -44.5 18t-18.5 44z" />
<glyph unicode="3" horiz-adv-x="1120" d="M80 472q0 26 18.5 44t44.5 18t44 -18t18 -44q0 -142 102 -247q54 -51 115.5 -76.5t134.5 -25.5q146 0 249 102q104 103 104 247q0 145 -104 247q-102 103 -249 103q-26 0 -44 17.5t-18 43.5t18 44t44 18q111 0 190 78q80 79 80 189t-80 187q-80 79 -190 79 q-112 0 -190 -79q-79 -77 -79 -187q0 -26 -18 -44t-44 -18t-44.5 18t-18.5 44q0 82 29 150.5t86 125.5q58 57 127 85.5t152 28.5q164 0 279 -114t115 -276q0 -171 -165 -323q35 -21 62 -41.5t47 -40.5q139 -138 139 -335t-140 -334q-139 -138 -337 -138q-196 0 -338 138 q-139 139 -139 334z" />
<glyph unicode="4" d="M80 460q0 20 11 36l747 1080q17 25 51 25q26 0 44 -18t18 -44v-1017h187q26 0 44 -18t18 -44t-18 -44t-44 -18h-187v-336q0 -26 -18 -44t-44 -18t-44 18t-18 44v336h-685q-26 0 -44 18t-18 44zM262 522h565v816z" />
<glyph unicode="5" horiz-adv-x="1200" d="M80 519q0 26 18 44t44 18t44 -18t18 -44q0 -164 115 -279q119 -116 279 -116q162 0 278 116q116 115 116 279t-116 277q-116 117 -278 117h-373q-26 0 -44 18t-18 44v565q0 26 18 44t44 18h746q26 0 44.5 -18t18.5 -44t-18.5 -44.5t-44.5 -18.5h-684v-440h311 q216 0 366 -152q153 -152 153 -366q0 -215 -153 -368q-151 -151 -366 -151q-213 0 -367 151q-151 152 -151 368z" />
<glyph unicode="6" horiz-adv-x="1120" d="M80 477q0 145 77 260l509 829q6 10 12 17q18 18 45 18q26 0 44.5 -18t18.5 -44q0 -17 -9 -33l-353 -567q72 15 133 15q199 0 337 -140q140 -137 140 -337q0 -199 -140 -338q-139 -139 -337 -139q-196 0 -338 139q-139 141 -139 338zM205 477q0 -144 102 -250 q54 -51 115.5 -77t134.5 -26q146 0 249 103q104 104 104 250t-104 249q-102 104 -249 104q-144 0 -250 -104q-102 -104 -102 -249z" />
<glyph unicode="7" horiz-adv-x="1120" d="M80 62q0 18 15 42l772 1373h-724q-26 0 -44.5 18.5t-18.5 44.5t18.5 44t44.5 18h829q26 0 44 -18t18 -44q0 -19 -9 -35l-825 -1469q-6 -11 -12 -17q-19 -19 -45 -19t-44.5 18t-18.5 44z" />
<glyph unicode="8" horiz-adv-x="1120" d="M80 472q0 196 140 335q41 41 111 85q-31 23 -53 44q-115 114 -115 276q0 82 29 150.5t86 125.5q58 57 127 85.5t152 28.5q164 0 279 -114t115 -276q0 -163 -115 -276q-18 -17 -49 -44q34 -24 61 -44.5t47 -40.5q139 -138 139 -335t-140 -334q-139 -138 -337 -138 q-196 0 -338 138q-139 139 -139 334zM205 472q0 -142 102 -247q109 -102 250 -102q146 0 249 102q104 103 104 247q0 145 -104 247q-102 103 -249 103q-144 0 -250 -103q-102 -103 -102 -247zM288 1212q0 -111 79 -189q78 -78 190 -78q111 0 190 78q80 79 80 189t-80 187 q-80 79 -190 79q-112 0 -190 -79q-79 -77 -79 -187z" />
<glyph unicode="9" horiz-adv-x="1120" d="M80 1124q0 196 139 337q142 140 338 140q199 0 337 -140q140 -139 140 -337q0 -145 -76 -262l-510 -827q-5 -9 -12 -16q-18 -19 -45 -19q-26 0 -44 18t-18 44q0 16 9 32l353 568q-64 -15 -134 -15q-198 0 -338 139q-139 141 -139 338zM205 1124q0 -145 102 -250 q106 -103 250 -103q147 0 249 103q104 103 104 250q0 146 -104 249q-102 103 -249 103q-146 0 -250 -103q-102 -104 -102 -249z" />
<glyph unicode=":" horiz-adv-x="400" d="M100 104q0 44 30 73q30 30 74 30t73 -30q30 -29 30 -73t-30 -74q-29 -30 -73 -30t-74 30t-30 74zM100 1017q0 44 30 74t74 30t73 -30q30 -30 30 -74q0 -45 -30 -73q-29 -30 -73 -30t-74 30q-30 28 -30 73z" />
<glyph unicode=";" horiz-adv-x="400" d="M100 104q0 44 30 73q30 30 74 30t73 -30q30 -29 30 -73q0 -197 -87 -329q-15 -24 -37 -24q-17 0 -29.5 12.5t-12.5 29.5q0 16 12 29q37 41 37 87q0 28 -14.5 58.5t-45.5 62.5q-30 30 -30 74zM100 1017q0 44 30 74t74 30t73 -30q30 -30 30 -74q0 -45 -30 -73 q-29 -30 -73 -30t-74 30q-30 28 -30 73z" />
<glyph unicode="&#x3c;" horiz-adv-x="1120" d="M79 726q0 32 36 57l825 496q14 7 31 7q26 0 44 -18t18 -44q0 -34 -33 -55h1l-739 -443l739 -443q32 -21 32 -55q0 -26 -18 -44t-44 -18q-20 0 -31 7l-825 496q-36 23 -36 57z" />
<glyph unicode="=" horiz-adv-x="1040" d="M81 477q0 26 18 44t44 18h747q26 0 44 -18t18 -44t-18 -44t-44 -18l-747 -1q-26 1 -44 19t-18 44zM81 975q0 26 18 44t44 18h747q26 0 44 -18t18 -44t-18 -44t-44 -18h-747q-26 0 -44 18t-18 44z" />
<glyph unicode="&#x3e;" horiz-adv-x="1120" d="M80 228q0 34 32 55l739 443l-739 443h1q-33 21 -33 55q0 26 18 44t44 18q17 0 31 -7l825 -496q36 -25 36 -57q0 -34 -36 -57l-825 -496q-11 -7 -31 -7q-26 0 -44 18t-18 44z" />
<glyph unicode="?" horiz-adv-x="1120" d="M80 1127q0 195 139 336q142 139 338 139q199 0 337 -139q140 -139 140 -336q0 -198 -140 -336v1l-171 -159q-103 -103 -103 -249q0 -26 -18.5 -44t-44.5 -18t-44 18t-18 44q0 197 140 336v-1l171 158q104 103 104 250q0 146 -104 248q-102 103 -249 103q-146 0 -250 -103 q-102 -103 -102 -248q0 -26 -18 -43.5t-44 -17.5t-44.5 17.5t-18.5 43.5zM454 104q0 44 30 73q28 30 73 30q44 0 74 -30q30 -29 30 -73t-30 -74t-74 -30q-45 0 -73 30q-30 30 -30 74z" />
<glyph unicode="@" horiz-adv-x="2240" d="M83 562q0 430 304 735t736 305q430 0 734 -305q306 -305 306 -735q0 -632 -388 -632q-224 0 -224 224v65q-15 -23 -39 -46q-161 -161 -389 -161q-230 0 -389 161q-161 161 -161 389t161 389q159 161 389 161q228 0 389 -161t161 -389v-408q0 -102 102 -102q265 0 265 510 q0 382 -269 649q-266 268 -648 268q-380 0 -650 -268q-268 -271 -268 -649t268 -649q270 -268 650 -268q102 0 195.5 19.5t181.5 59.5q16 7 33 7q25 0 43 -17.5t18 -43.5q0 -27 -18 -43q-10 -10 -22 -16q-194 -89 -431 -89q-432 0 -736 305q-304 304 -304 735zM694 562 q0 -177 126 -303t303 -126t303 126q125 125 125 303t-125 303q-126 126 -303 126t-303 -126t-126 -303z" />
<glyph unicode="A" horiz-adv-x="1440" d="M80 62q0 13 6 27l571 1467q6 16 16 27q17 17 43 17t44 -18q10 -10 16 -26l570 -1467q6 -14 6 -27q0 -26 -18 -44t-43 -18q-26 0 -43 15q-9 9 -15 23l-208 536h-617l-209 -536q-6 -14 -14 -22q-17 -16 -43 -16t-44 18t-18 44zM456 697h521l-261 672z" />
<glyph unicode="B" horiz-adv-x="1120" d="M80 62v1476q0 26 18 44t44 18h328q162 0 276 -114t114 -276t-134 -296q100 -48 161 -108q137 -139 137 -334q0 -196 -138 -335q-139 -137 -334 -137h-410q-26 0 -44 18t-18 44zM203 123h349q145 0 246 102q103 102 103 247q0 144 -103 246q-100 103 -246 103h-349v-698z M203 944h267q111 0 188 78q79 79 79 188t-79 188t-188 79h-267v-533z" />
<glyph unicode="C" horiz-adv-x="1480" d="M80 800q0 331 234 565q235 235 566 235q285 0 507 -182q18 -18 18 -44q0 -25 -18 -43t-43 -18q-26 0 -51 24q-173 140 -413 140q-280 0 -479 -199q-198 -198 -198 -478q0 -281 198 -479t479 -198q242 0 424 149q13 9 33 9q26 0 44 -18t18 -44q0 -25 -15 -41 q-112 -87 -238 -132.5t-266 -45.5q-163 0 -306 61t-260 173q-112 117 -173 260t-61 306z" />
<glyph unicode="D" horiz-adv-x="1360" d="M80 62v1476q0 26 18 44t43 18h329q331 0 565 -235q235 -234 235 -565t-235 -566q-234 -234 -565 -234h-329q-25 0 -43 18t-18 44zM203 123h267q278 0 478 198q199 199 199 479q0 279 -199 478q-201 199 -478 199h-267v-1354z" />
<glyph unicode="E" d="M80 62v1476q0 26 18 44t44 18h985q25 0 43 -18t18 -44q0 -25 -18 -43t-43 -18h-924v-615h677q26 0 44 -18t18 -44t-18 -44t-44 -18h-677v-615h924q25 0 43 -18t18 -43q0 -26 -18 -44t-43 -18h-985q-26 0 -44 18t-18 44z" />
<glyph unicode="F" d="M80 62v1476q0 26 18 44t44 18h985q25 0 43 -18t18 -44q0 -25 -18 -43t-43 -18h-924v-615h677q26 0 44 -18t18 -44t-18 -44t-44 -18h-677v-676q0 -26 -17.5 -44t-43.5 -18t-44 18t-18 44z" />
<glyph unicode="G" horiz-adv-x="1500" d="M80 800q0 331 234 565q235 235 566 235q285 0 507 -182q18 -18 18 -44q0 -25 -18 -43t-43 -18q-26 0 -51 24q-173 140 -413 140q-280 0 -479 -199q-198 -198 -198 -478q0 -281 198 -479t479 -198q220 0 396 127v406h-345q-26 0 -43.5 18t-17.5 44t17.5 43.5t43.5 17.5 h407q24 0 44 -18q17 -19 17 -43v-499q0 -27 -15 -41q-112 -87 -238 -132.5t-266 -45.5q-163 0 -306 61t-260 173q-112 117 -173 260t-61 306z" />
<glyph unicode="H" d="M80 62v1476q0 26 18 44t44 18t43.5 -18t17.5 -44v-676h862v676q0 26 18 44t44 18q25 0 43 -18t18 -44v-1476q0 -26 -18 -44t-43 -18q-26 0 -44 18t-18 44v676h-862v-676q0 -26 -17.5 -44t-43.5 -18t-44 18t-18 44z" />
<glyph unicode="I" horiz-adv-x="480" d="M178 62v1476q0 26 17.5 44t43.5 18t44 -18t18 -44v-1476q0 -26 -18 -44t-44 -18t-43.5 18t-17.5 44z" />
<glyph unicode="J" horiz-adv-x="1120" d="M80 472q0 26 18 43.5t44 17.5t43.5 -17.5t17.5 -43.5q0 -144 102 -247q105 -102 247 -102q145 0 246 102q103 102 103 247v1066q0 26 18 44t43 18q26 0 44 -18t18 -44v-1066q0 -196 -138 -335q-139 -137 -334 -137t-334 137q-138 141 -138 335z" />
<glyph unicode="K" horiz-adv-x="1200" d="M80 62v1476q0 26 18 44t43 18q26 0 44 -18t18 -44v-752l795 795q19 19 46 19q26 0 44 -18t18 -44q0 -23 -18 -44l-589 -588l595 -808q11 -16 12 -33q0 -33 -25 -53q-17 -12 -35 -12q-34 0 -53 26l-583 790l-207 -207v-547q0 -26 -18 -44t-44 -18q-25 0 -43 18t-18 44z " />
<glyph unicode="L" horiz-adv-x="1200" d="M80 62v1476q0 26 18 44t43 18q26 0 44 -18t18 -44v-1415h841q26 0 44 -18t18 -43q0 -26 -18 -44t-44 -18h-903q-25 0 -43 18t-18 44z" />
<glyph unicode="M" horiz-adv-x="1760" d="M80 62v1476q0 26 18 44t44 18q37 0 54 -32l684 -1369l684 1369q18 32 55 32q26 0 43.5 -18t17.5 -44v-1476q0 -26 -17.5 -44t-43.5 -18t-44 18t-18 44v1216l-624 -1249q-18 -29 -53 -29q-40 0 -57 39l-620 1239v-1216q0 -26 -17.5 -44t-43.5 -18t-44 18t-18 44z" />
<glyph unicode="N" horiz-adv-x="1440" d="M80 62v1476q0 26 18 44t44 18q29 0 47 -22l1040 -1337v1297q0 26 18 44t44 18q25 0 43 -18t18 -44v-1476q0 -26 -18 -44t-43 -18q-30 0 -46 18l-1042 1340v-1296q0 -26 -17.5 -44t-43.5 -18t-44 18t-18 44z" />
<glyph unicode="O" horiz-adv-x="1760" d="M80 800q0 331 234 565q235 235 566 235q333 0 565 -235q235 -234 235 -565t-235 -566q-233 -234 -565 -234q-163 0 -306 61t-260 173q-112 117 -173 260t-61 306zM203 800q0 -281 198 -479q199 -198 479 -198t478 198q199 198 199 479q0 280 -199 478q-199 199 -478 199 q-278 0 -479 -199q-198 -198 -198 -478z" />
<glyph unicode="P" horiz-adv-x="1080" d="M80 62v1476q0 26 17.5 44t43.5 18h328q214 0 362 -151q151 -148 151 -362q0 -212 -151 -363q-150 -150 -362 -150h-266v-512q0 -26 -18 -44t-44 -18t-43.5 18t-17.5 44zM203 697h266q161 0 275 114q115 115 115 276t-115 275q-114 115 -275 115h-266v-780z" />
<glyph unicode="Q" horiz-adv-x="1760" d="M80 800q0 331 234 565q235 235 566 235q333 0 565 -235q235 -234 235 -565q0 -292 -192 -520l175 -175q17 -18 17 -43q0 -26 -17.5 -44t-43.5 -18t-45 19l-174 173q-230 -192 -520 -192q-163 0 -306 61t-260 173q-112 117 -173 260t-61 306zM203 800q0 -281 198 -479 q199 -198 479 -198q238 0 433 156l-190 190q-17 18 -17 44t18 43.5t43 17.5t45 -17l189 -190q156 195 156 433q0 280 -199 478q-199 199 -478 199q-278 0 -479 -199q-198 -198 -198 -478z" />
<glyph unicode="R" horiz-adv-x="1200" d="M80 62v1476q0 26 18 44t43 18h411q196 0 333 -138q138 -138 138 -334t-137 -333q-65 -65 -160 -108l369 -592q11 -16 11 -33q0 -26 -18 -44t-44 -18q-32 0 -54 33l-391 625q-21 -2 -47 -2h-349v-594q0 -26 -18 -44t-44 -18q-25 0 -43 18t-18 44zM203 779h349 q144 0 246 102t102 247q0 147 -102 246q-102 103 -246 103h-349v-698z" />
<glyph unicode="S" horiz-adv-x="1060" d="M80 253q0 26 17.5 44t43.5 18q33 0 53 -28q13 -19 30 -40q45 -52 109 -86.5t160 -37.5q125 0 223 83q53 46 88 110.5t35 158.5q0 126 -83 222q-46 54 -106.5 85t-130.5 37q-78 8 -146.5 43t-119.5 94q-44 54 -68 117t-24 132q2 187 137 301q109 94 254 94q168 0 296 -139 q22 -26 38 -53q9 -15 9 -34q0 -25 -18 -43t-43 -18q-29 0 -41 16q-16 22 -39 50q-75 88 -181 95q-10 1 -19 1q-97 0 -176 -65q-86 -72 -93 -179q-1 -12 -1 -23q0 -42 12 -81q15 -49 51 -91q36 -43 81.5 -65.5t99.5 -27.5q95 -10 177.5 -52.5t145.5 -113.5q53 -65 82 -141 t29 -157q-2 -138 -46.5 -220.5t-119.5 -145.5q-134 -113 -302 -113q-211 0 -364 167q-17 19 -37 48q-13 17 -13 38z" />
<glyph unicode="T" horiz-adv-x="1360" d="M81 1538q0 26 18 44t43 18h1067q26 0 44 -18t18 -44q0 -25 -18 -43t-44 -18h-472v-1415q0 -26 -17.5 -44t-43.5 -18t-44 18t-18 44v1415h-472q-25 0 -43 18t-18 43z" />
<glyph unicode="U" d="M81 554v984q0 26 18 44t44 18t43.5 -18t17.5 -44v-984q0 -179 127 -305q126 -126 304 -126q179 0 305 126t126 305v984q0 26 18 44t44 18q25 0 43 -18t18 -44v-984q0 -230 -162 -392t-392 -162t-392 162q-81 81 -121.5 178.5t-40.5 213.5z" />
<glyph unicode="V" horiz-adv-x="1440" d="M80 1538q0 26 18 44t44 18q43 0 56 -35l518 -1334l519 1335q12 34 56 34q25 0 43 -18t18 -44q0 -17 -9 -39l-571 -1461q-5 -13 -12 -20q-18 -18 -44 -18q-27 0 -43 18q-6 7 -12 20l-572 1461q-9 23 -9 39z" />
<glyph unicode="W" horiz-adv-x="1920" d="M77 1538q0 26 18 44t44 18t44 -17q10 -11 14 -24l352 -1266l352 1267q3 11 15 23q19 17 43 17q26 0 44 -17q10 -11 15 -24l352 -1266l351 1266q5 14 16 25q17 16 43 16t43.5 -18t17.5 -44q0 -13 -5 -30l-402 -1454q-6 -22 -20 -36q-20 -18 -44 -18q-26 0 -44 18 q-14 15 -20 35l-347 1252l-345 -1251q-7 -21 -21 -36q-19 -18 -44 -18t-43 18q-15 15 -21 35l-403 1455q-5 17 -5 30z" />
<glyph unicode="X" horiz-adv-x="1440" d="M80 62q0 22 14 39l543 699l-546 704q-11 13 -11 34q0 26 18 44t44 18q30 0 51 -27l523 -672l523 672q23 27 52 27q25 0 43 -18t18 -44q0 -20 -10 -35l-547 -703l544 -699q13 -16 13 -39q0 -26 -18 -44t-43 -18q-29 0 -47 21l-528 677l-528 -677q-17 -21 -46 -21 q-26 0 -44 18t-18 44z" />
<glyph unicode="Y" d="M81 1538q0 26 18 44t44 18q30 0 49 -25l443 -664l443 664q18 25 50 25q25 0 43 -18t18 -44q0 -20 -10 -34l-482 -722v-720q0 -26 -18 -44t-44 -18t-43.5 18t-17.5 44v720l-483 722q-10 16 -10 34z" />
<glyph unicode="Z" horiz-adv-x="1440" d="M80 62q0 20 14 39l1070 1376h-1022q-26 0 -44 18t-18 43q0 26 18 44t44 18h1149q25 0 43 -18t18 -44q0 -20 -10 -34l-1074 -1381h1023q25 0 43 -18t18 -43q0 -26 -18 -44t-43 -18h-1149q-26 0 -44 18t-18 44z" />
<glyph unicode="[" horiz-adv-x="640" d="M98 -418v1958q0 26 18 44t44 18h332q26 0 44 -18t18 -44t-18 -44.5t-44 -18.5h-270v-1832h270q26 0 44 -18.5t18 -44.5t-18 -44t-44 -18h-332q-26 0 -44 18t-18 44z" />
<glyph unicode="\" horiz-adv-x="960" d="M95 1539q0 26 18 44t44 18t45 -18q8 -8 11 -16l664 -1644q6 -14 6 -27q0 -26 -18 -44t-44 -18t-44 16q-8 9 -12 18l-665 1643q-5 13 -5 28z" />
<glyph unicode="]" horiz-adv-x="640" d="M98 -418q0 26 18 44.5t44 18.5h270v1832h-270q-26 0 -44 18.5t-18 44.5t18 44t44 18h332q26 0 44 -18t18 -44v-1958q0 -26 -18 -44t-44 -18h-332q-26 0 -44 18t-18 44z" />
<glyph unicode="^" horiz-adv-x="960" d="M95 1042q0 18 8 32l336 503q9 11 21 18t29 7t29 -7t21 -18l336 -503q8 -14 8 -32q0 -26 -18 -44t-44 -18q-32 0 -49 22l-283 426l-283 -426q-19 -22 -49 -22q-26 0 -44 18t-18 44z" />
<glyph unicode="_" horiz-adv-x="960" d="M-71 -64q0 26 18 44.5t44 18.5h996q26 0 44 -18.5t18 -44.5t-18 -44t-44 -18h-996q-26 0 -44 18t-18 44z" />
<glyph unicode="`" horiz-adv-x="560" d="M99 1539q0 26 18 44t44 18t44 -18l252 -252q15 -17 15 -41q0 -26 -18 -44.5t-44 -18.5q-24 0 -43 16l-252 252q-8 9 -12 20.5t-4 23.5z" />
<glyph unicode="a" d="M80 560q0 232 164 396t396 164t396 -164t164 -396v-498q0 -26 -18 -44t-44 -18t-44.5 18t-18.5 44v141q-202 -203 -435 -203q-232 0 -396 164t-164 396zM204 560q0 -180 128 -308t308 -128t308 128q127 127 127 308t-127 308q-128 128 -308 128t-308 -128t-128 -308z" />
<glyph unicode="b" d="M80 560v978q0 26 18 44t44 18t44 -18t18 -44v-621l40 39q164 164 396 164t396 -164t164 -396t-164 -396t-396 -164t-396 164t-164 396zM204 560q0 -180 128 -308t308 -128t308 128q127 127 127 308t-127 308q-128 128 -308 128t-308 -128t-128 -308z" />
<glyph unicode="c" horiz-adv-x="1120" d="M80 560q0 232 164 396t396 164q103 0 196.5 -35t168.5 -100q9 -9 15.5 -22t6.5 -27q0 -26 -18 -44t-44 -18q-24 0 -40 15q-122 107 -285 107q-180 0 -308 -128q-127 -127 -127 -308t127 -308q128 -128 308 -128q79 0 152.5 29t132.5 78q15 12 37 12q26 0 44 -18.5 t18 -44.5t-19 -45q-76 -65 -169 -100t-196 -35q-232 0 -396 164t-164 396z" />
<glyph unicode="d" d="M80 560q0 232 164 396t396 164t396 -164l39 -39v621q0 26 18.5 44t44.5 18t44 -18t18 -44v-978q0 -232 -164 -396t-396 -164t-396 164t-164 396zM204 560q0 -180 128 -308t308 -128t308 128q127 127 127 308t-127 308q-128 128 -308 128t-308 -128t-128 -308z" />
<glyph unicode="e" d="M80 560q0 232 164 396t396 164t396 -164t164 -396q0 -26 -18 -44t-44 -18h-932q30 -150 126 -246q128 -128 308 -128q82 0 152 26.5t128 76.5q17 14 39 14q26 0 44 -18.5t18 -44.5t-16 -43q-156 -135 -365 -135q-232 0 -396 164t-164 396zM206 622h867q-28 149 -125 246 q-128 128 -308 128t-308 -128q-96 -96 -126 -246z" />
<glyph unicode="f" horiz-adv-x="800" d="M84 996q0 26 18 44t44 18h103v65q0 477 478 477q26 0 44 -18t18 -44t-18 -44.5t-44 -18.5q-353 0 -353 -352v-65h271q26 0 44 -18t18 -44t-18 -44.5t-44 -18.5h-271v-871q0 -26 -18 -44t-44 -18t-44.5 18t-18.5 44v871h-103q-26 0 -44 18.5t-18 44.5z" />
<glyph unicode="g" d="M80 561q0 232 164 395q164 164 396 164t396 -164q164 -163 164 -395v-566q0 -172 -125 -299q-176 -176 -426 -176t-425 176q-65 62 -105 135q-11 19 -11 37q0 26 18 44t44 18t45 -19q8 -7 14 -19q34 -60 83 -109q70 -70 154.5 -104.5t182.5 -34.5q198 0 338 140 q88 106 88 211v210q-183 -202 -435 -202q-232 0 -396 163q-164 164 -164 395zM204 561q0 -179 128 -307t308 -128t308 128q127 127 127 307q0 181 -127 308q-128 127 -308 127t-308 -127q-128 -128 -128 -308z" />
<glyph unicode="h" horiz-adv-x="1200" d="M81 62v1478q0 26 18 44t44 18t44 -18t18 -44v-598q184 178 394 178q216 0 366 -152q153 -152 153 -367v-539q0 -26 -18.5 -44t-44.5 -18t-44 18t-18 44v539q0 165 -116 278q-116 117 -278 117t-279 -117q-115 -114 -115 -278v-539q0 -26 -18 -44t-44 -18t-44 18t-18 44z " />
<glyph unicode="i" horiz-adv-x="480" d="M149 1390q0 34 24.5 58.5t58.5 24.5q35 0 59 -24.5t24 -58.5q0 -35 -24 -59t-59 -24q-34 0 -58.5 24t-24.5 59zM170 62v996q0 26 18 44t44 18t44.5 -18t18.5 -44v-996q0 -26 -18.5 -44t-44.5 -18t-44 18t-18 44z" />
<glyph unicode="j" horiz-adv-x="656" d="M3 -418q0 26 18.5 44.5t44.5 18.5q146 0 248 103q104 103 104 249v1061q0 26 18 44t44 18t44.5 -18t18.5 -44v-1061q0 -197 -140 -337t-337 -140q-26 0 -44.5 18t-18.5 44zM397 1390q0 34 24.5 58.5t58.5 24.5q35 0 59 -24.5t24 -58.5q0 -35 -24 -59t-59 -24 q-34 0 -58.5 24t-24.5 59z" />
<glyph unicode="k" horiz-adv-x="1120" d="M81 62v1478q0 26 18.5 44t44.5 18t44 -18t18 -44v-906l734 477q14 9 33 9q26 0 44 -18t18 -44q0 -32 -20 -47l-506 -331l509 -574q17 -18 17 -44t-18 -44t-44 -18t-45 20l-527 592l-195 -127v-423q0 -26 -18 -44t-44 -18t-44.5 18t-18.5 44z" />
<glyph unicode="l" horiz-adv-x="480" d="M87 62v1478q0 26 18 44t44 18t44.5 -18t18.5 -44v-1416h103q26 0 44.5 -18t18.5 -44t-18.5 -44t-44.5 -18h-166q-26 0 -44 18t-18 44z" />
<glyph unicode="m" horiz-adv-x="1760" d="M75 62v996q0 26 18.5 44t44.5 18t44 -18t18 -44v-67q152 129 311 129q180 0 308 -128q31 -32 65 -78q34 46 66 78q128 128 308 128t308 -128q127 -127 127 -308v-622q0 -26 -18 -44t-44 -18t-44 18t-18 44v622q0 129 -92 220q-92 92 -219 92q-128 0 -220 -92 q-91 -91 -91 -220v-622q0 -26 -18.5 -44t-44.5 -18t-44 18t-18 44v622q0 129 -91 220q-92 92 -220 92t-220 -92q-91 -91 -91 -220v-622q0 -26 -18 -44t-44 -18t-44.5 18t-18.5 44z" />
<glyph unicode="n" horiz-adv-x="1200" d="M81 62v996q0 26 18 44t44 18t44 -18t18 -44v-116q184 178 394 178q216 0 366 -152q153 -152 153 -367v-539q0 -26 -18.5 -44t-44.5 -18t-44 18t-18 44v539q0 165 -116 278q-116 117 -278 117t-279 -117q-115 -114 -115 -278v-539q0 -26 -18 -44t-44 -18t-44 18t-18 44z " />
<glyph unicode="o" d="M80 560q0 232 164 396t396 164t396 -164t164 -396t-164 -396t-396 -164t-396 164t-164 396zM204 560q0 -180 128 -308t308 -128t308 128q127 127 127 308t-127 308q-128 128 -308 128t-308 -128t-128 -308z" />
<glyph unicode="p" d="M80 -418v978q0 232 164 396t396 164t396 -164t164 -396t-164 -396t-396 -164t-396 164l-40 39v-621q0 -26 -18 -44t-44 -18t-44 18t-18 44zM204 560q0 -180 128 -308t308 -128t308 128q127 127 127 308t-127 308q-128 128 -308 128t-308 -128t-128 -308z" />
<glyph unicode="q" d="M80 560q0 232 164 396t396 164t396 -164t164 -396v-978q0 -26 -18 -44t-44 -18t-44.5 18t-18.5 44v621l-39 -39q-164 -164 -396 -164t-396 164t-164 396zM204 560q0 -180 128 -308t308 -128t308 128q127 127 127 308t-127 308q-128 128 -308 128t-308 -128t-128 -308z " />
<glyph unicode="r" horiz-adv-x="960" d="M83 62v996q0 26 18 44t44 18t44 -18t18 -44v-141q203 203 436 203q125 0 214 -39q16 -6 29 -19q17 -17 17 -44q0 -26 -18 -44t-44 -18q-16 0 -28 6q-70 34 -170 34q-180 0 -308 -128q-128 -127 -128 -308v-498q0 -26 -18 -44t-44 -18t-44 18t-18 44z" />
<glyph unicode="s" horiz-adv-x="1060" d="M82 809q0 93 70 165q144 146 376 146q124 0 233 -52.5t197 -148.5q11 -14 11 -35q0 -26 -18.5 -44.5t-44.5 -18.5q-25 0 -39 16l-31 31q-128 128 -308 128q-181 0 -291 -116q-30 -35 -30 -86q2 -30 18 -52t47 -33l511 -169h-1q46 -17 77 -33.5t47 -34.5q68 -68 68 -161 q0 -94 -71 -165q-143 -146 -375 -146q-251 0 -430 200q-11 15 -11 36q0 26 18 44.5t44 18.5q24 0 40 -16l31 -31q128 -128 308 -128t289 115q31 35 31 86q-5 64 -65 86l-510 169h1q-46 17 -77 33.5t-48 34.5q-67 69 -67 161z" />
<glyph unicode="t" horiz-adv-x="800" d="M84 1058q0 26 18.5 44t44.5 18h103v419q0 26 18 44t44 18t44.5 -18t18.5 -44v-419h187q26 0 44.5 -18t18.5 -44t-18.5 -44t-44.5 -18h-187v-602q0 -270 269 -270q26 0 44.5 -18t18.5 -44t-18.5 -44t-44.5 -18q-394 0 -394 394v602h-103q-26 0 -44.5 18t-18.5 44z" />
<glyph unicode="u" horiz-adv-x="1200" d="M81 519v539q0 26 18 44t44 18t44 -18t18 -44v-539q0 -164 115 -279q119 -116 279 -116q162 0 278 116q116 115 116 279v539q0 26 18 44t44 18t44.5 -18t18.5 -44v-996q0 -26 -18.5 -44t-44.5 -18t-44 18t-18 44v116q-184 -178 -394 -178q-213 0 -367 151 q-151 152 -151 368z" />
<glyph unicode="v" horiz-adv-x="1200" d="M81 1058q0 26 18 44t44 18t45 -17q6 -6 11 -16l400 -875l400 875q4 8 11 15q19 18 45 18t44.5 -17.5t18.5 -44.5q0 -13 -5 -24l-460 -1003q-4 -9 -11 -16q-15 -15 -43 -15q-27 0 -44 17q-7 7 -10 14l-460 1003q-4 10 -4 24z" />
<glyph unicode="w" horiz-adv-x="1600" d="M77 1058q0 26 18 44t44 18t45 -18q7 -7 12 -19l275 -824l271 813q7 20 18 31q18 17 43 17q26 0 43 -17q12 -12 18 -31l271 -813l274 825q4 10 12 18q18 18 46 18q26 0 44 -18t18 -44q0 -12 -5 -26l-331 -993q-4 -12 -15 -23q-16 -16 -43 -16t-44 17q-9 9 -14 22l-274 822 l-274 -822q-4 -12 -13 -21q-18 -18 -45 -18t-44 17q-9 9 -14 22l-331 993q-5 15 -5 26z" />
<glyph unicode="x" horiz-adv-x="1120" d="M81 62q0 21 12 38l384 461l-381 456q-15 16 -15 41q0 26 18.5 44t44.5 18t45 -19l369 -442l370 442q19 19 45 19t44 -18t18 -44q0 -24 -14 -41l-382 -456l385 -461q11 -17 11 -38q0 -26 -18 -44t-44 -18t-42 19l-373 445l-372 -445q-16 -19 -42 -19t-44.5 18t-18.5 44z " />
<glyph unicode="y" horiz-adv-x="1120" d="M81 1058q0 26 18.5 44t44.5 18t44 -18q9 -9 15 -25l355 -850l355 850q6 16 17 27q16 16 43 16q26 0 44 -18t19 -44q0 -10 -4 -22l-616 -1474q-5 -14 -14 -23q-19 -19 -45 -19t-44 18t-18 44q0 13 4 22l191 459l-405 970q-4 13 -4 25z" />
<glyph unicode="z" horiz-adv-x="1120" d="M81 62q0 21 12 38l746 896h-695q-26 0 -44.5 18t-18.5 44t18.5 44t44.5 18h829q26 0 44 -18t18 -44q0 -24 -14 -41l-746 -893h698q26 0 44 -18t18 -44t-18 -44t-44 -18h-829q-26 0 -44.5 18t-18.5 44z" />
<glyph unicode="{" horiz-adv-x="800" d="M84 560q0 26 18.5 44t44.5 18q186 0 186 187v481q0 311 311 311q26 0 44.5 -18t18.5 -44t-18.5 -44.5t-44.5 -18.5q-186 0 -186 -186v-481q0 -159 -92 -249q92 -90 92 -249v-480q0 -186 186 -186q26 0 44.5 -18.5t18.5 -44.5t-18.5 -44t-44.5 -18q-311 0 -311 311v480 q0 187 -186 187q-26 0 -44.5 18t-18.5 44z" />
<glyph unicode="|" horiz-adv-x="800" d="M333 -418v1958q0 26 18 44t44 18t44.5 -18t18.5 -44v-1958q0 -26 -18.5 -44t-44.5 -18t-44 18t-18 44z" />
<glyph unicode="}" horiz-adv-x="800" d="M84 -418q0 26 18.5 44.5t44.5 18.5q186 0 186 186v480q0 158 91 249q-91 91 -91 249v481q0 186 -186 186q-26 0 -44.5 18.5t-18.5 44.5t18.5 44t44.5 18q311 0 311 -311v-481q0 -187 186 -187q26 0 44.5 -18t18.5 -44t-18.5 -44t-44.5 -18q-186 0 -186 -187v-480 q0 -311 -311 -311q-26 0 -44.5 18t-18.5 44z" />
<glyph unicode="~" horiz-adv-x="960" d="M74 764q0 26 18 44.5t44 18.5q25 0 43 -17q56 -56 132 -56q67 0 116 40q88 79 208 79q129 0 220 -91q17 -18 17 -44t-18 -44t-44 -18t-44 17q-54 56 -131 56q-65 0 -118 -42q-87 -78 -206 -78q-129 0 -221 92q-8 9 -12 20.5t-4 22.5z" />
<glyph unicode="&#xa1;" horiz-adv-x="400" d="M88 1015q0 44 30 74t74 30t73 -30q30 -30 30 -74q0 -45 -30 -73q-29 -30 -73 -30t-74 30q-30 28 -30 73zM129 -418v1144q0 24 19 42.5t44 18.5q26 0 44 -18t18 -43v-1144q0 -26 -18 -44t-44 -18t-44.5 18t-18.5 44z" />
<glyph unicode="&#xa2;" horiz-adv-x="1120" d="M89 560q0 233 163 396q164 164 397 164q37 0 64 -3l119 296q11 25 34 35q9 4 24 4q26 0 44 -18.5t18 -43.5q0 -10 -5 -23l-110 -277q51 -20 96 -47t81 -58q10 -9 15.5 -22t5.5 -27q0 -26 -18 -44t-44 -18q-22 0 -40 15q-57 50 -142 84l-325 -810q94 -39 183 -39 q78 0 151.5 29t132.5 78q15 12 37 12q26 0 44 -18.5t18 -44.5q0 -25 -18 -45q-77 -65 -169.5 -100t-195.5 -35q-112 0 -229 48l-135 -340q-4 -13 -15 -24q-18 -18 -44 -18t-44 18t-18 44q0 14 5 26l142 358q-31 23 -59 52q-163 163 -163 396zM213 560q0 -178 147 -328 l305 765q-204 -8 -324 -129q-128 -127 -128 -308z" />
<glyph unicode="&#xa3;" horiz-adv-x="1040" d="M82 719q0 26 18 44t44 18h134q-29 154 -84 285l1 -1q-30 75 -30 148q0 162 115 276q58 57 127 85.5t152 28.5t152 -28.5t127 -85.5q29 -30 51 -61q12 -17 12 -39q0 -26 -18 -43.5t-44 -17.5q-29 0 -44 19q-18 26 -45 55q-80 77 -191 77t-191 -79q-79 -77 -79 -187 q0 -26 5.5 -51t16.5 -50q32 -75 55 -158t37 -173h322q26 0 44 -18t18 -44q0 -25 -18 -43t-44 -18h-312q1 -129 -22 -262t-72 -273h450l68 135q14 29 54 29q26 0 44 -17.5t18 -43.5q0 -17 -7 -30l-80 -159q-5 -10 -13 -18q-19 -19 -45 -19h-581q-26 0 -44 18t-18 43 q0 11 5 26q124 287 118 571h-144q-26 0 -44 18t-18 43z" />
<glyph unicode="&#xa4;" horiz-adv-x="960" d="M114 456q0 26 19 44l87 81q-28 43 -41 86.5t-13 89.5q0 87 49 170l-82 87q-19 18 -19 44t18 44t44 18t43 -16l83 -88q83 52 175 52q87 0 170 -49l87 82q19 19 44 19q26 0 44 -18t18 -44t-19 -46l-85 -80q52 -86 52 -175q0 -84 -49 -170l83 -86q18 -19 18 -45t-18 -44 t-44 -18t-42 17l-84 87q-86 -52 -175 -52q-86 0 -169 49l-91 -86q-16 -15 -41 -15q-26 0 -44 18t-18 44zM290 757q0 -75 55 -132q55 -55 132 -55q75 0 132 55q55 57 55 132t-55 132q-57 55 -132 55q-77 0 -132 -55q-55 -57 -55 -132z" />
<glyph unicode="&#xa5;" d="M80 555q0 26 18 43.5t44 17.5h436v168l-81 121h-355q-26 0 -44 17.5t-18 43.5t18 43.5t44 17.5h272l-325 479q-9 15 -9 36q0 25 18 43t44 18q31 0 50 -25l448 -666l448 666q17 25 50 25q26 0 44 -18t18 -43q0 -21 -11 -36l-323 -479h273q25 0 43 -18t18 -43 q0 -26 -18 -44q-18 -17 -43 -17h-356l-81 -121v-168h436q26 0 44 -17.5t18 -43.5t-18 -44t-44 -18h-436v-432q0 -25 -18 -43t-44 -18t-44 18t-18 43v432h-436q-26 0 -44 18t-18 44z" />
<glyph unicode="&#xa6;" horiz-adv-x="480" d="M170 311q0 26 18 44t44 18t44.5 -18t18.5 -44v-729q0 -26 -18.5 -44t-44.5 -18t-44 18t-18 44v729zM170 975v746q0 26 18 44.5t44 18.5t44.5 -18.5t18.5 -44.5v-746q0 -26 -18.5 -44t-44.5 -18t-44 18t-18 44z" />
<glyph unicode="&#xa7;" horiz-adv-x="960" d="M83 -93q0 26 18 44t44 18t44 -18t18 -44q0 -109 79 -185q80 -79 191 -79q110 0 190 79q80 76 80 185q0 108 -80 186q-80 79 -190 79q-164 0 -279 113t-115 275q0 161 115 274q34 33 64 52q-30 19 -64 52q-115 112 -115 275q0 161 115 274q58 56 127 84.5t152 28.5 t152 -28.5t127 -84.5q115 -113 115 -274q0 -26 -18 -44t-44 -18t-44 18t-18 44q0 109 -80 185q-80 79 -190 79q-111 0 -191 -79q-79 -76 -79 -185q0 -111 79 -188q79 -78 191 -78q164 0 279 -113t115 -274q0 -162 -115 -275q-33 -33 -64 -52q31 -19 64 -52 q115 -112 115 -274q0 -161 -115 -274q-58 -56 -127 -84.5t-152 -28.5t-152 28.5t-127 84.5q-115 113 -115 274zM207 560q0 -111 79 -188q79 -78 191 -78q111 0 190 78q80 78 80 188q0 108 -80 186q-80 79 -190 79q-111 0 -191 -79q-79 -77 -79 -186z" />
<glyph unicode="&#xa8;" horiz-adv-x="960" d="M144 1390q0 34 24 58.5t59 24.5t59 -24.5t24 -58.5q0 -35 -24 -59t-59 -24t-59 24t-24 59zM642 1390q0 34 24 58.5t59 24.5q34 0 58.5 -24.5t24.5 -58.5q0 -35 -24.5 -59t-58.5 -24q-35 0 -59 24t-24 59z" />
<glyph unicode="&#xa9;" horiz-adv-x="1760" d="M75 802q0 333 235 565q233 236 567 236q332 0 566 -236q235 -232 235 -565q0 -332 -235 -568q-235 -234 -566 -234q-332 0 -567 234q-235 236 -235 568zM161 802q0 -297 209 -507q212 -210 507 -210t505 210q211 211 211 507q0 297 -211 505q-208 211 -505 211 q-296 0 -507 -211q-209 -209 -209 -505zM322 804q0 231 163 394t394 163q102 0 195 -35t168 -100q22 -19 22 -48q0 -26 -18 -44t-44 -18q-23 0 -39 14q-121 106 -284 106q-180 0 -306 -126t-126 -306t126 -306q127 -127 306 -127q78 0 151.5 28.5t130.5 77.5q16 12 38 12 q26 0 44 -18.5t18 -44.5q0 -25 -19 -44q-76 -65 -168.5 -100t-194.5 -35q-231 0 -394 163t-163 394z" />
<glyph unicode="&#xaa;" horiz-adv-x="960" d="M83 1224q0 164 115 279q58 57 127 86t152 29t152 -29t127 -86q115 -115 115 -279v-332q0 -26 -18 -44t-44 -18t-44 18t-18 43v48q-112 -109 -270 -109q-164 0 -279 115q-115 114 -115 279zM207 1224q0 -112 79 -191t191 -79q111 0 190 79q80 80 80 191t-80 189 q-80 80 -190 80q-111 0 -191 -80q-79 -78 -79 -189z" />
<glyph unicode="&#xab;" horiz-adv-x="960" d="M83 559q0 16 8 31l245 490q7 14 14 21q18 18 44 18t44 -18t18 -44q0 -15 -5 -26l-236 -471l236 -472q5 -11 5 -26q0 -26 -18 -44t-44 -18q-25 0 -40 14q-9 9 -18 24l-243 486q-10 19 -10 35zM507 559q0 16 8 31l245 490q7 14 14 21q18 18 44 18t44 -18t18 -44 q0 -15 -5 -26l-236 -471l236 -472q5 -11 5 -26q0 -26 -18 -44t-44 -18q-25 0 -40 14q-9 9 -18 24l-243 486q-10 19 -10 35z" />
<glyph unicode="&#xac;" horiz-adv-x="1120" d="M81 1058q0 26 18.5 44t44.5 18h829q26 0 44 -18t18 -44v-332q0 -26 -18 -44t-44 -18t-44 18t-18 44v270h-767q-26 0 -44.5 18t-18.5 44z" />
<glyph unicode="&#xad;" horiz-adv-x="800" d="M79 560q0 26 18.5 44t44.5 18h497q26 0 44.5 -18t18.5 -44t-18.5 -44t-44.5 -18h-497q-26 0 -44.5 18t-18.5 44z" />
<glyph unicode="&#xae;" horiz-adv-x="1760" d="M82 800q0 332 234 564q233 235 566 235q331 0 565 -235q234 -232 234 -564q0 -331 -234 -567q-235 -233 -565 -233q-331 0 -566 233q-234 236 -234 567zM168 800q0 -296 208 -506q212 -209 506 -209t504 209q210 211 210 506q0 296 -210 504q-208 210 -504 210 q-295 0 -506 -210q-208 -209 -208 -504zM576 314v971q0 14 10 23t22 9h271q126 0 214 -88q89 -88 89 -213q0 -62 -22 -116t-67 -99q-21 -21 -49 -39.5t-61 -33.5l246 -394q7 -10 7 -20q0 -14 -10 -23.5t-23 -9.5q-20 0 -30 17l-260 418q-18 -3 -34 -3h-236v-399 q0 -14 -10.5 -23.5t-24.5 -9.5q-12 0 -22 9.5t-10 23.5zM643 779h236q97 0 167 70q70 68 70 167q0 96 -70 167q-71 68 -167 68h-236v-472z" />
<glyph unicode="&#xaf;" horiz-adv-x="1120" d="M81 1887q0 26 18.5 44.5t44.5 18.5h829q26 0 44 -18.5t18 -44.5t-18 -44t-44 -18h-829q-26 0 -44.5 18t-18.5 44z" />
<glyph unicode="&#xb0;" horiz-adv-x="960" d="M83 1224q0 164 115 279q58 57 127 86t152 29t152 -29t127 -86q115 -115 115 -279q0 -165 -115 -279q-115 -115 -279 -115t-279 115q-115 114 -115 279zM207 1224q0 -112 79 -191t191 -79q111 0 190 79q80 80 80 191t-80 189q-80 80 -190 80q-111 0 -191 -80 q-79 -78 -79 -189z" />
<glyph unicode="&#xb1;" horiz-adv-x="1120" d="M81 62q0 26 18.5 44t44.5 18h829q26 0 44 -18t18 -44t-18 -44t-44 -18h-829q-26 0 -44.5 18t-18.5 44zM81 809q0 26 18.5 44t44.5 18h352v353q0 26 18 44t44 18t44.5 -18t18.5 -44v-353h352q26 0 44 -18t18 -44t-18 -44t-44 -18h-352v-353q0 -26 -18.5 -44t-44.5 -18 t-44 18t-18 44v353h-352q-26 0 -44.5 18t-18.5 44z" />
<glyph unicode="&#xb2;" horiz-adv-x="640" d="M86 859q0 7 6 15q87 96 175 194.5t176 193.5q25 26 39 60t14 70q0 76 -54 130q-55 55 -130 55q-78 0 -132 -55q-54 -54 -54 -130q0 -8 -5.5 -14t-13.5 -6q-10 0 -15.5 6t-5.5 14q0 94 65 159q67 67 161 67q93 0 159 -67q66 -65 66 -159q0 -93 -67 -161l-318 -353h365 q8 0 14 -5.5t6 -13.5q0 -10 -6 -15.5t-14 -5.5h-410q-21 0 -21 21z" />
<glyph unicode="&#xb3;" horiz-adv-x="640" d="M86 1059q0 8 5.5 14.5t15.5 6.5q8 0 14 -6.5t6 -14.5q0 -78 54 -132t133 -54q75 0 131 54q55 55 55 132q0 39 -14 71.5t-41 60.5q-56 54 -131 54q-10 0 -15.5 6t-5.5 15q0 8 5.5 14.5t15.5 6.5q60 0 102 42t42 102q0 61 -42 103t-102 42q-61 0 -103 -42t-42 -103 q0 -8 -6.5 -14t-14.5 -6q-9 0 -15 6t-6 14q0 78 54 132q55 55 133 55q39 0 71 -14t60 -41q55 -55 55 -132q0 -85 -91 -164q23 -14 40 -26t26 -20q66 -68 66 -162t-66 -161q-66 -66 -161 -66q-96 0 -162 66q-66 67 -66 161z" />
<glyph unicode="&#xb4;" horiz-adv-x="560" d="M87 1288q0 25 14 41l252 252q18 18 45 18q26 0 44 -18t18 -44q0 -12 -4 -23.5t-13 -20.5l-252 -252q-17 -16 -42 -16q-26 0 -44 18.5t-18 44.5z" />
<glyph unicode="&#xb5;" horiz-adv-x="1200" d="M81 -418v1476q0 26 18 44t44 18t44 -18t18 -44v-539q0 -164 115 -279q119 -116 279 -116q162 0 278 116q116 115 116 279v539q0 26 18 44t44 18t44.5 -18t18.5 -44v-996q0 -26 -18.5 -44t-44.5 -18t-44 18t-18 44v116q-184 -178 -394 -178t-394 178v-596q0 -26 -18 -44 t-44 -18t-44 18t-18 44z" />
<glyph unicode="&#xb6;" horiz-adv-x="1120" d="M81 1207q0 83 29 152t86 127q58 57 127 86t152 29h498q26 0 44 -18t18 -44t-24 -44.5t-59 -18.5v-1414q0 -26 -18 -44t-44 -18t-44 18t-18 44v1414h-207v-1414q0 -26 -18.5 -44t-44.5 -18t-44 18t-18 44v751q-185 0 -300 115t-115 279z" />
<glyph unicode="&#xb7;" horiz-adv-x="400" d="M88 767q0 44 30 74t74 30t73 -30q30 -30 30 -74q0 -45 -30 -73q-29 -30 -73 -30t-74 30q-30 28 -30 73z" />
<glyph unicode="&#xb8;" horiz-adv-x="640" d="M86 -327q0 26 18 44t44 18q19 0 34 -9l81 -51q24 -12 51 -12q43 0 73.5 19.5t30.5 52.5q0 34 -30.5 53.5t-73.5 19.5q-26 0 -44 18t-18 44q0 11 3 20l40 143q5 15 17 27q17 17 43 17t44.5 -18t18.5 -44q0 -8 -2 -16l-21 -78q51 -22 82 -46q65 -57 65 -140q0 -81 -66 -139 q-67 -58 -162 -58q-53 0 -109 28l-91 54q-28 20 -28 53z" />
<glyph unicode="&#xb9;" horiz-adv-x="480" d="M128 1555q0 8 6 14q3 3 7 5l124 43q4 1 8 1q8 0 14.5 -6.5t6.5 -14.5v-741q0 -10 -6.5 -15.5t-14.5 -5.5t-14 5.5t-6 15.5v713l-96 -32q-4 -2 -9 -2q-8 0 -14 6t-6 14z" />
<glyph unicode="&#xba;" horiz-adv-x="640" d="M86 1227q0 239 95 337q55 54 132 54q39 0 71 -13.5t60 -40.5q95 -98 95 -337q0 -240 -95 -338q-54 -54 -131 -54q-78 0 -132 54q-95 98 -95 338zM127 1227q0 -215 82 -308q43 -43 104 -43q59 0 102 43q84 94 84 308q0 210 -84 306q-43 44 -102 44q-61 0 -104 -44 q-82 -93 -82 -306z" />
<glyph unicode="&#xbb;" horiz-adv-x="960" d="M83 62q0 15 5 26l236 472l-236 471q-5 11 -5 26q0 26 18 44t44 18t44 -18q7 -7 14 -21l245 -490q8 -15 8 -31t-10 -35l-243 -486q-9 -15 -18 -24q-15 -14 -40 -14q-26 0 -44 18t-18 44zM507 62q0 15 5 26l236 472l-236 471q-5 11 -5 26q0 26 18 44t44 18t44 -18 q7 -7 14 -21l245 -490q8 -15 8 -31t-10 -35l-243 -486q-9 -15 -18 -24q-15 -14 -40 -14q-26 0 -44 18t-18 44z" />
<glyph unicode="&#xbc;" horiz-adv-x="1440" d="M78 1540q0 13 9 21q4 4 11 7l147 49q6 2 12 2q12 0 20.5 -8.5t8.5 -20.5v-897q0 -13 -8.5 -21t-20.5 -8q-13 0 -21 8t-8 21v855l-107 -35q-6 -2 -14 -2q-12 0 -20.5 8t-8.5 21zM161 62q0 20 10 34l999 1499q8 11 20 17t29 6q26 0 44 -18t18 -44q0 -19 -9 -35l-993 -1488 q-23 -33 -55 -33q-26 0 -44.5 18t-18.5 44zM709 278q0 9 5 17l451 651q7 8 21 8q13 0 21 -8t8 -21v-618h120q13 0 21 -8t8 -21t-8 -21t-21 -8h-120v-220q0 -13 -8 -21t-21 -8t-21 8t-8 21v220h-419q-13 0 -21 8t-8 21zM795 307h362v524z" />
<glyph unicode="&#xbd;" horiz-adv-x="1600" d="M78 1540q0 13 9 21q4 4 11 7l147 49q6 2 12 2q12 0 20.5 -8.5t8.5 -20.5v-897q0 -13 -8.5 -21t-20.5 -8q-13 0 -21 8t-8 21v855l-107 -35q-6 -2 -14 -2q-12 0 -20.5 8t-8.5 21zM161 62q0 20 10 34l999 1499q8 11 20 17t29 6q26 0 44 -18t18 -44q0 -19 -9 -35l-993 -1488 q-23 -33 -55 -33q-26 0 -44.5 18t-18.5 44zM972 29q0 13 8 21l426 472q65 65 65 155q0 93 -66 156q-64 64 -155 64q-90 0 -156 -64q-64 -66 -64 -156q0 -12 -8.5 -20.5t-20.5 -8.5q-13 0 -21 8.5t-8 20.5q0 115 81 196q82 82 197 82q116 0 197 -82q82 -81 82 -196 q0 -116 -83 -199l-379 -420h433q11 0 20 -8t9 -21t-9 -21t-20 -8h-499q-13 0 -21 8t-8 21z" />
<glyph unicode="&#xbe;" horiz-adv-x="1600" d="M77 941q0 12 8 20.5t21 8.5t21 -8.5t8 -20.5q0 -91 63 -155q66 -64 156 -64t154 64q65 65 65 155q0 92 -65 155q-63 64 -154 64q-13 0 -21 8.5t-8 20.5q0 11 8 19.5t21 8.5q69 0 119 50q51 51 51 121q0 69 -51 119q-50 50 -119 50t-119 -50q-50 -49 -50 -119 q0 -13 -9 -21t-20 -8q-13 0 -21 8t-8 21q0 95 66 160q67 67 161 67t161 -67q66 -66 66 -160q0 -95 -66 -161q-17 -18 -40 -35q40 -18 75 -54q81 -83 81 -197q0 -115 -81 -196t-196 -81t-196 81t-81 196zM319 62q0 20 10 34l999 1499q8 11 20 17t29 6q26 0 44 -18t18 -44 q0 -19 -9 -35l-993 -1488q-23 -33 -55 -33q-26 0 -44.5 18t-18.5 44zM880 278q0 9 5 17l451 651q7 8 21 8q13 0 21 -8t8 -21v-618h120q13 0 21 -8t8 -21t-8 -21t-21 -8h-120v-220q0 -13 -8 -21t-21 -8t-21 8t-8 21v220h-419q-13 0 -21 8t-8 21zM966 307h362v524z" />
<glyph unicode="&#xbf;" horiz-adv-x="1120" d="M80 -3q0 199 140 338v-1l171 159q103 103 103 251q0 26 18.5 44t44.5 18t44 -18t18 -44q0 -198 -140 -338v1q-43 -40 -85.5 -80t-85.5 -80q-104 -103 -104 -250q0 -146 104 -249q102 -103 249 -103q146 0 250 103q102 103 102 249q0 26 18 44t44 18t44.5 -18t18.5 -44 q0 -198 -139 -337q-142 -140 -338 -140q-199 0 -337 140q-71 69 -105.5 153.5t-34.5 183.5zM452 1015q0 44 30 74t74 30q45 0 73 -30q30 -30 30 -74q0 -45 -30 -73q-28 -30 -73 -30q-44 0 -74 30q-30 28 -30 73z" />
<glyph unicode="&#xc0;" horiz-adv-x="1440" d="M93 62q0 13 6 27l571 1467q6 16 16 27q17 17 43 17t44 -18q10 -10 16 -26l570 -1467q6 -14 6 -27q0 -26 -18 -44t-43 -18q-26 0 -43 15q-9 9 -15 23l-208 536h-617l-209 -536q-6 -14 -14 -22q-17 -16 -43 -16t-44 18t-18 44zM469 697h521l-261 672zM485 2019q0 26 18 44 t44 18t44 -18l252 -252q15 -17 15 -41q0 -26 -18 -44.5t-44 -18.5q-24 0 -43 16l-252 252q-8 9 -12 20.5t-4 23.5z" />
<glyph unicode="&#xc1;" horiz-adv-x="1440" d="M93 62q0 13 6 27l571 1467q6 16 16 27q17 17 43 17t44 -18q10 -10 16 -26l570 -1467q6 -14 6 -27q0 -26 -18 -44t-43 -18q-26 0 -43 15q-9 9 -15 23l-208 536h-617l-209 -536q-6 -14 -14 -22q-17 -16 -43 -16t-44 18t-18 44zM469 697h521l-261 672zM607 1768q0 25 14 41 l252 252q18 18 45 18q26 0 44 -18t18 -44q0 -12 -4 -23.5t-13 -20.5l-252 -252q-17 -16 -42 -16q-26 0 -44 18.5t-18 44.5z" />
<glyph unicode="&#xc2;" horiz-adv-x="1440" d="M93 62q0 13 6 27l571 1467q6 16 16 27q17 17 43 17t44 -18q10 -10 16 -26l570 -1467q6 -14 6 -27q0 -26 -18 -44t-43 -18q-26 0 -43 15q-9 9 -15 23l-208 536h-617l-209 -536q-6 -14 -14 -22q-17 -16 -43 -16t-44 18t-18 44zM417 1828q0 32 32 55l248 165q14 8 31 8 q18 0 32 -8l247 -165q33 -23 33 -55q0 -26 -18.5 -44t-44.5 -18q-22 0 -40 13l-209 139l-209 -139q-18 -13 -39 -13q-26 0 -44.5 18t-18.5 44zM469 697h521l-261 672z" />
<glyph unicode="&#xc3;" horiz-adv-x="1440" d="M93 62q0 13 6 27l571 1467q6 16 16 27q17 17 43 17t44 -18q10 -10 16 -26l570 -1467q6 -14 6 -27q0 -26 -18 -44t-43 -18q-26 0 -43 15q-9 9 -15 23l-208 536h-617l-209 -536q-6 -14 -14 -22q-17 -16 -43 -16t-44 18t-18 44zM324 1895q0 26 18 44.5t44 18.5q25 0 43 -17 q56 -56 132 -56q67 0 116 40q88 79 208 79q129 0 220 -91q17 -18 17 -44t-18 -44t-44 -18t-44 17q-54 56 -131 56q-65 0 -118 -42q-87 -78 -206 -78q-129 0 -221 92q-8 9 -12 20.5t-4 22.5zM469 697h521l-261 672z" />
<glyph unicode="&#xc4;" horiz-adv-x="1440" d="M93 62q0 13 6 27l571 1467q6 16 16 27q17 17 43 17t44 -18q10 -10 16 -26l570 -1467q6 -14 6 -27q0 -26 -18 -44t-43 -18q-26 0 -43 15q-9 9 -15 23l-208 536h-617l-209 -536q-6 -14 -14 -22q-17 -16 -43 -16t-44 18t-18 44zM398 1870q0 34 24 58.5t59 24.5t59 -24.5 t24 -58.5q0 -35 -24 -59t-59 -24t-59 24t-24 59zM469 697h521l-261 672zM896 1870q0 34 24 58.5t59 24.5q34 0 58.5 -24.5t24.5 -58.5q0 -35 -24.5 -59t-58.5 -24q-35 0 -59 24t-24 59z" />
<glyph unicode="&#xc5;" horiz-adv-x="1440" d="M93 62q0 13 6 27l571 1467q6 16 16 27q17 17 43 17t44 -18q10 -10 16 -26l570 -1467q6 -14 6 -27q0 -26 -18 -44t-43 -18q-26 0 -43 15q-9 9 -15 23l-208 536h-617l-209 -536q-6 -14 -14 -22q-17 -16 -43 -16t-44 18t-18 44zM469 697h521l-261 672zM537 1892q0 78 55 133 q57 55 134 55q78 0 133 -55t55 -133q0 -77 -55 -134q-55 -55 -133 -55q-77 0 -134 55q-55 57 -55 134zM617 1892q0 -45 32 -77t77 -32t77 32t32 77t-32 77t-77 32t-77 -32t-32 -77z" />
<glyph unicode="&#xc6;" horiz-adv-x="1760" d="M79 62q0 17 7 28l823 1482q17 28 52 28h657q26 0 43.5 -18t17.5 -44q0 -25 -17.5 -43t-43.5 -18h-595v-698h431q25 0 43 -17.5t18 -43.5t-18 -44t-43 -18h-431v-533h595q26 0 43.5 -18t17.5 -43q0 -26 -17.5 -44t-43.5 -18h-657q-26 0 -43.5 18t-17.5 44v594h-358 l-349 -627q-19 -29 -52 -29q-26 0 -44 18t-18 44zM611 779h289v521z" />
<glyph unicode="&#xc7;" horiz-adv-x="1480" d="M93 800q0 331 234 565q235 235 566 235q285 0 507 -182q18 -18 18 -44q0 -25 -18 -43t-43 -18q-26 0 -51 24q-173 140 -413 140q-280 0 -479 -199q-198 -198 -198 -478q0 -281 198 -479t479 -198q242 0 424 149q13 9 33 9q26 0 44 -18t18 -44q0 -25 -15 -41 q-112 -87 -238 -132.5t-266 -45.5q-163 0 -306 61t-260 173q-112 117 -173 260t-61 306zM525 -327q0 26 18 44t44 18q19 0 34 -9l81 -51q24 -12 51 -12q43 0 73.5 19.5t30.5 52.5q0 34 -30.5 53.5t-73.5 19.5q-26 0 -44 18t-18 44q0 11 3 20l40 143q5 15 17 27q17 17 43 17 t44.5 -18t18.5 -44q0 -8 -2 -16l-21 -78q51 -22 82 -46q65 -57 65 -140q0 -81 -66 -139q-67 -58 -162 -58q-53 0 -109 28l-91 54q-28 20 -28 53z" />
<glyph unicode="&#xc8;" d="M95 62v1476q0 26 18 44t44 18h985q25 0 43 -18t18 -44q0 -25 -18 -43t-43 -18h-924v-615h677q26 0 44 -18t18 -44t-18 -44t-44 -18h-677v-615h924q25 0 43 -18t18 -43q0 -26 -18 -44t-43 -18h-985q-26 0 -44 18t-18 44zM408 2019q0 26 18 44t44 18t44 -18l252 -252 q15 -17 15 -41q0 -26 -18 -44.5t-44 -18.5q-24 0 -43 16l-252 252q-8 9 -12 20.5t-4 23.5z" />
<glyph unicode="&#xc9;" d="M95 62v1476q0 26 18 44t44 18h985q25 0 43 -18t18 -44q0 -25 -18 -43t-43 -18h-924v-615h677q26 0 44 -18t18 -44t-18 -44t-44 -18h-677v-615h924q25 0 43 -18t18 -43q0 -26 -18 -44t-43 -18h-985q-26 0 -44 18t-18 44zM530 1768q0 25 14 41l252 252q18 18 45 18 q26 0 44 -18t18 -44q0 -12 -4 -23.5t-13 -20.5l-252 -252q-17 -16 -42 -16q-26 0 -44 18.5t-18 44.5z" />
<glyph unicode="&#xca;" d="M95 62v1476q0 26 18 44t44 18h985q25 0 43 -18t18 -44q0 -25 -18 -43t-43 -18h-924v-615h677q26 0 44 -18t18 -44t-18 -44t-44 -18h-677v-615h924q25 0 43 -18t18 -43q0 -26 -18 -44t-43 -18h-985q-26 0 -44 18t-18 44zM338 1828q0 32 32 55l248 165q14 8 31 8 q18 0 32 -8l247 -165q33 -23 33 -55q0 -26 -18.5 -44t-44.5 -18q-22 0 -40 13l-209 139l-209 -139q-18 -13 -39 -13q-26 0 -44.5 18t-18.5 44z" />
<glyph unicode="&#xcb;" d="M95 62v1476q0 26 18 44t44 18h985q25 0 43 -18t18 -44q0 -25 -18 -43t-43 -18h-924v-615h677q26 0 44 -18t18 -44t-18 -44t-44 -18h-677v-615h924q25 0 43 -18t18 -43q0 -26 -18 -44t-43 -18h-985q-26 0 -44 18t-18 44zM321 1870q0 34 24 58.5t59 24.5t59 -24.5t24 -58.5 q0 -35 -24 -59t-59 -24t-59 24t-24 59zM819 1870q0 34 24 58.5t59 24.5q34 0 58.5 -24.5t24.5 -58.5q0 -35 -24.5 -59t-58.5 -24q-35 0 -59 24t-24 59z" />
<glyph unicode="&#xcc;" horiz-adv-x="480" d="M-2 2019q0 26 18 44t44 18t44 -18l252 -252q15 -17 15 -41q0 -26 -18 -44.5t-44 -18.5q-24 0 -43 16l-252 252q-8 9 -12 20.5t-4 23.5zM178 62v1476q0 26 17.5 44t43.5 18t44 -18t18 -44v-1476q0 -26 -18 -44t-44 -18t-43.5 18t-17.5 44z" />
<glyph unicode="&#xcd;" horiz-adv-x="480" d="M114 1768q0 25 14 41l252 252q18 18 45 18q26 0 44 -18t18 -44q0 -12 -4 -23.5t-13 -20.5l-252 -252q-17 -16 -42 -16q-26 0 -44 18.5t-18 44.5zM178 62v1476q0 26 17.5 44t43.5 18t44 -18t18 -44v-1476q0 -26 -18 -44t-44 -18t-43.5 18t-17.5 44z" />
<glyph unicode="&#xce;" horiz-adv-x="480" d="M-70 1828q0 32 32 55l248 165q14 8 31 8q18 0 32 -8l247 -165q33 -23 33 -55q0 -26 -18.5 -44t-44.5 -18q-22 0 -40 13l-209 139l-209 -139q-18 -13 -39 -13q-26 0 -44.5 18t-18.5 44zM178 62v1476q0 26 17.5 44t43.5 18t44 -18t18 -44v-1476q0 -26 -18 -44t-44 -18 t-43.5 18t-17.5 44z" />
<glyph unicode="&#xcf;" horiz-adv-x="480" d="M-89 1870q0 34 24 58.5t59 24.5t59 -24.5t24 -58.5q0 -35 -24 -59t-59 -24t-59 24t-24 59zM178 62v1476q0 26 17.5 44t43.5 18t44 -18t18 -44v-1476q0 -26 -18 -44t-44 -18t-43.5 18t-17.5 44zM409 1870q0 34 24 58.5t59 24.5q34 0 58.5 -24.5t24.5 -58.5 q0 -35 -24.5 -59t-58.5 -24q-35 0 -59 24t-24 59z" />
<glyph unicode="&#xd0;" horiz-adv-x="1520" d="M-1 800q0 26 18 44t44 18h183v676q0 26 18 44t44 18h328q331 0 565 -235q235 -234 235 -565t-235 -566q-234 -234 -565 -234h-328q-26 0 -44 18t-18 44v676h-183q-26 0 -44 18t-18 44zM367 123h267q280 0 478 198q199 199 199 479q0 279 -199 478t-478 199h-267v-615h349 q26 0 44 -18t18 -44t-18 -44t-44 -18h-349v-615z" />
<glyph unicode="&#xd1;" horiz-adv-x="1440" d="M93 62v1476q0 26 18 44t44 18q29 0 47 -22l1040 -1337v1297q0 26 18 44t44 18q25 0 43 -18t18 -44v-1476q0 -26 -18 -44t-43 -18q-30 0 -46 18l-1042 1340v-1296q0 -26 -17.5 -44t-43.5 -18t-44 18t-18 44zM324 1895q0 26 18 44.5t44 18.5q25 0 43 -17q56 -56 132 -56 q67 0 116 40q88 79 208 79q129 0 220 -91q17 -18 17 -44t-18 -44t-44 -18t-44 17q-54 56 -131 56q-65 0 -118 -42q-87 -78 -206 -78q-129 0 -221 92q-8 9 -12 20.5t-4 22.5z" />
<glyph unicode="&#xd2;" horiz-adv-x="1760" d="M91 800q0 331 234 565q235 235 566 235q333 0 565 -235q235 -234 235 -565t-235 -566q-233 -234 -565 -234q-163 0 -306 61t-260 173q-112 117 -173 260t-61 306zM214 800q0 -281 198 -479q199 -198 479 -198t478 198q199 198 199 479q0 280 -199 478q-199 199 -478 199 q-278 0 -479 -199q-198 -198 -198 -478zM723 2019q0 26 18 44t44 18t44 -18l252 -252q15 -17 15 -41q0 -26 -18 -44.5t-44 -18.5q-24 0 -43 16l-252 252q-8 9 -12 20.5t-4 23.5z" />
<glyph unicode="&#xd3;" horiz-adv-x="1760" d="M91 800q0 331 234 565q235 235 566 235q333 0 565 -235q235 -234 235 -565t-235 -566q-233 -234 -565 -234q-163 0 -306 61t-260 173q-112 117 -173 260t-61 306zM214 800q0 -281 198 -479q199 -198 479 -198t478 198q199 198 199 479q0 280 -199 478q-199 199 -478 199 q-278 0 -479 -199q-198 -198 -198 -478zM695 1768q0 25 14 41l252 252q18 18 45 18q26 0 44 -18t18 -44q0 -12 -4 -23.5t-13 -20.5l-252 -252q-17 -16 -42 -16q-26 0 -44 18.5t-18 44.5z" />
<glyph unicode="&#xd4;" horiz-adv-x="1760" d="M91 800q0 331 234 565q235 235 566 235q333 0 565 -235q235 -234 235 -565t-235 -566q-233 -234 -565 -234q-163 0 -306 61t-260 173q-112 117 -173 260t-61 306zM214 800q0 -281 198 -479q199 -198 479 -198t478 198q199 198 199 479q0 280 -199 478q-199 199 -478 199 q-278 0 -479 -199q-198 -198 -198 -478zM575 1828q0 32 32 55l248 165q14 8 31 8q18 0 32 -8l247 -165q33 -23 33 -55q0 -26 -18.5 -44t-44.5 -18q-22 0 -40 13l-209 139l-209 -139q-18 -13 -39 -13q-26 0 -44.5 18t-18.5 44z" />
<glyph unicode="&#xd5;" horiz-adv-x="1760" d="M91 800q0 331 234 565q235 235 566 235q333 0 565 -235q235 -234 235 -565t-235 -566q-233 -234 -565 -234q-163 0 -306 61t-260 173q-112 117 -173 260t-61 306zM214 800q0 -281 198 -479q199 -198 479 -198t478 198q199 198 199 479q0 280 -199 478q-199 199 -478 199 q-278 0 -479 -199q-198 -198 -198 -478zM482 1895q0 26 18 44.5t44 18.5q25 0 43 -17q56 -56 132 -56q67 0 116 40q88 79 208 79q129 0 220 -91q17 -18 17 -44t-18 -44t-44 -18t-44 17q-54 56 -131 56q-65 0 -118 -42q-87 -78 -206 -78q-129 0 -221 92q-8 9 -12 20.5 t-4 22.5z" />
<glyph unicode="&#xd6;" horiz-adv-x="1760" d="M91 800q0 331 234 565q235 235 566 235q333 0 565 -235q235 -234 235 -565t-235 -566q-233 -234 -565 -234q-163 0 -306 61t-260 173q-112 117 -173 260t-61 306zM214 800q0 -281 198 -479q199 -198 479 -198t478 198q199 198 199 479q0 280 -199 478q-199 199 -478 199 q-278 0 -479 -199q-198 -198 -198 -478zM556 1870q0 34 24 58.5t59 24.5t59 -24.5t24 -58.5q0 -35 -24 -59t-59 -24t-59 24t-24 59zM1054 1870q0 34 24 58.5t59 24.5q34 0 58.5 -24.5t24.5 -58.5q0 -35 -24.5 -59t-58.5 -24q-35 0 -59 24t-24 59z" />
<glyph unicode="&#xd7;" horiz-adv-x="960" d="M83 394q0 26 16 44l289 288l-289 288q-16 18 -16 44t18 44t44 18t46 -19l286 -286l286 286q20 19 46 19t44 -18t18 -44t-17 -44l-288 -288l288 -288q17 -18 17 -44t-18 -44t-44 -18t-43 15l-289 290l-289 -290q-17 -15 -43 -15t-44 18t-18 44z" />
<glyph unicode="&#xd8;" horiz-adv-x="1760" d="M79 62q0 25 16 42l176 176q-192 229 -192 520q0 331 234 565q235 235 566 235q290 0 520 -192l175 175q18 17 44 17t43.5 -18t17.5 -44q0 -24 -14 -40l-178 -178q192 -228 192 -520q0 -331 -235 -566q-233 -234 -565 -234q-291 0 -520 192l-174 -175q-18 -17 -44 -17 t-44 18t-18 44zM202 800q0 -236 156 -433l954 954q-195 156 -433 156q-278 0 -479 -199q-198 -198 -198 -478zM446 279q196 -156 433 -156q280 0 478 198q199 198 199 479q0 237 -156 434z" />
<glyph unicode="&#xd9;" d="M94 554v984q0 26 18 44t44 18t43.5 -18t17.5 -44v-984q0 -179 127 -305q126 -126 304 -126q179 0 305 126t126 305v984q0 26 18 44t44 18q25 0 43 -18t18 -44v-984q0 -230 -162 -392t-392 -162t-392 162q-81 81 -121.5 178.5t-40.5 213.5zM405 2019q0 26 18 44t44 18 t44 -18l252 -252q15 -17 15 -41q0 -26 -18 -44.5t-44 -18.5q-24 0 -43 16l-252 252q-8 9 -12 20.5t-4 23.5z" />
<glyph unicode="&#xda;" d="M94 554v984q0 26 18 44t44 18t43.5 -18t17.5 -44v-984q0 -179 127 -305q126 -126 304 -126q179 0 305 126t126 305v984q0 26 18 44t44 18q25 0 43 -18t18 -44v-984q0 -230 -162 -392t-392 -162t-392 162q-81 81 -121.5 178.5t-40.5 213.5zM527 1768q0 25 14 41l252 252 q18 18 45 18q26 0 44 -18t18 -44q0 -12 -4 -23.5t-13 -20.5l-252 -252q-17 -16 -42 -16q-26 0 -44 18.5t-18 44.5z" />
<glyph unicode="&#xdb;" d="M94 554v984q0 26 18 44t44 18t43.5 -18t17.5 -44v-984q0 -179 127 -305q126 -126 304 -126q179 0 305 126t126 305v984q0 26 18 44t44 18q25 0 43 -18t18 -44v-984q0 -230 -162 -392t-392 -162t-392 162q-81 81 -121.5 178.5t-40.5 213.5zM337 1828q0 32 32 55l248 165 q14 8 31 8q18 0 32 -8l247 -165q33 -23 33 -55q0 -26 -18.5 -44t-44.5 -18q-22 0 -40 13l-209 139l-209 -139q-18 -13 -39 -13q-26 0 -44.5 18t-18.5 44z" />
<glyph unicode="&#xdc;" d="M94 554v984q0 26 18 44t44 18t43.5 -18t17.5 -44v-984q0 -179 127 -305q126 -126 304 -126q179 0 305 126t126 305v984q0 26 18 44t44 18q25 0 43 -18t18 -44v-984q0 -230 -162 -392t-392 -162t-392 162q-81 81 -121.5 178.5t-40.5 213.5zM318 1870q0 34 24 58.5t59 24.5 t59 -24.5t24 -58.5q0 -35 -24 -59t-59 -24t-59 24t-24 59zM816 1870q0 34 24 58.5t59 24.5q34 0 58.5 -24.5t24.5 -58.5q0 -35 -24.5 -59t-58.5 -24q-35 0 -59 24t-24 59z" />
<glyph unicode="&#xdd;" d="M94 1538q0 26 18 44t44 18q30 0 49 -25l443 -664l443 664q18 25 50 25q25 0 43 -18t18 -44q0 -20 -10 -34l-482 -722v-720q0 -26 -18 -44t-44 -18t-43.5 18t-17.5 44v720l-483 722q-10 16 -10 34zM527 1768q0 25 14 41l252 252q18 18 45 18q26 0 44 -18t18 -44 q0 -12 -4 -23.5t-13 -20.5l-252 -252q-17 -16 -42 -16q-26 0 -44 18.5t-18 44.5z" />
<glyph unicode="&#xde;" d="M82 62v1476q0 26 18 44t44 18t43.5 -18t17.5 -44v-266h513q196 0 334 -139q138 -137 138 -333t-138 -334t-334 -138h-513v-266q0 -26 -17.5 -44t-43.5 -18t-44 18t-18 44zM205 451h513q145 0 246 102q103 103 103 247t-103 246q-100 103 -246 103h-513v-698z" />
<glyph unicode="&#xdf;" horiz-adv-x="1120" d="M81 62v1162q0 83 29 152t86 127q58 57 127 86t152 29q164 0 279 -115t115 -279q0 -144 -91 -252q-30 -39 -30 -94q0 -93 69 -130q59 -31 103 -75q115 -115 115 -279t-115 -279q-114 -115 -279 -115q-164 0 -279 115q-20 22 -20 47q0 26 18 44t44 18q27 0 48 -20 q78 -80 189 -80t190 79q80 80 80 191q0 112 -79 191q-28 28 -63 49q-36 22 -68 51q-80 80 -80 194q0 106 69 182q55 71 55 163q0 111 -80 189q-80 80 -190 80t-189 -78q-80 -80 -80 -191v-1162q0 -26 -18 -44t-44 -18t-44.5 18t-18.5 44z" />
<glyph unicode="&#xe0;" d="M92 560q0 232 164 396t396 164t396 -164t164 -396v-498q0 -26 -18 -44t-44 -18t-44.5 18t-18.5 44v141q-202 -203 -435 -203q-232 0 -396 164t-164 396zM216 560q0 -180 128 -308t308 -128t308 128q127 127 127 308t-127 308q-128 128 -308 128t-308 -128t-128 -308z M428 1539q0 26 18 44t44 18t44 -18l252 -252q15 -17 15 -41q0 -26 -18 -44.5t-44 -18.5q-24 0 -43 16l-252 252q-8 9 -12 20.5t-4 23.5z" />
<glyph unicode="&#xe1;" d="M92 560q0 232 164 396t396 164t396 -164t164 -396v-498q0 -26 -18 -44t-44 -18t-44.5 18t-18.5 44v141q-202 -203 -435 -203q-232 0 -396 164t-164 396zM216 560q0 -180 128 -308t308 -128t308 128q127 127 127 308t-127 308q-128 128 -308 128t-308 -128t-128 -308z M479 1288q0 25 14 41l252 252q18 18 45 18q26 0 44 -18t18 -44q0 -12 -4 -23.5t-13 -20.5l-252 -252q-17 -16 -42 -16q-26 0 -44 18.5t-18 44.5z" />
<glyph unicode="&#xe2;" d="M92 560q0 232 164 396t396 164t396 -164t164 -396v-498q0 -26 -18 -44t-44 -18t-44.5 18t-18.5 44v141q-202 -203 -435 -203q-232 0 -396 164t-164 396zM216 560q0 -180 128 -308t308 -128t308 128q127 127 127 308t-127 308q-128 128 -308 128t-308 -128t-128 -308z M336 1348q0 32 32 55l248 165q14 8 31 8q18 0 32 -8l247 -165q33 -23 33 -55q0 -26 -18.5 -44t-44.5 -18q-22 0 -40 13l-209 139l-209 -139q-18 -13 -39 -13q-26 0 -44.5 18t-18.5 44z" />
<glyph unicode="&#xe3;" d="M92 560q0 232 164 396t396 164t396 -164t164 -396v-498q0 -26 -18 -44t-44 -18t-44.5 18t-18.5 44v141q-202 -203 -435 -203q-232 0 -396 164t-164 396zM216 560q0 -180 128 -308t308 -128t308 128q127 127 127 308t-127 308q-128 128 -308 128t-308 -128t-128 -308z M250 1415q0 26 18 44.5t44 18.5q25 0 43 -17q56 -56 132 -56q67 0 116 40q88 79 208 79q129 0 220 -91q17 -18 17 -44t-18 -44t-44 -18t-44 17q-54 56 -131 56q-65 0 -118 -42q-87 -78 -206 -78q-129 0 -221 92q-8 9 -12 20.5t-4 22.5z" />
<glyph unicode="&#xe4;" d="M92 560q0 232 164 396t396 164t396 -164t164 -396v-498q0 -26 -18 -44t-44 -18t-44.5 18t-18.5 44v141q-202 -203 -435 -203q-232 0 -396 164t-164 396zM216 560q0 -180 128 -308t308 -128t308 128q127 127 127 308t-127 308q-128 128 -308 128t-308 -128t-128 -308z M317 1390q0 34 24 58.5t59 24.5t59 -24.5t24 -58.5q0 -35 -24 -59t-59 -24t-59 24t-24 59zM815 1390q0 34 24 58.5t59 24.5q34 0 58.5 -24.5t24.5 -58.5q0 -35 -24.5 -59t-58.5 -24q-35 0 -59 24t-24 59z" />
<glyph unicode="&#xe5;" d="M92 560q0 232 164 396t396 164t396 -164t164 -396v-498q0 -26 -18 -44t-44 -18t-44.5 18t-18.5 44v141q-202 -203 -435 -203q-232 0 -396 164t-164 396zM216 560q0 -180 128 -308t308 -128t308 128q127 127 127 308t-127 308q-128 128 -308 128t-308 -128t-128 -308z M457 1412q0 78 55 133q57 55 134 55q78 0 133 -55t55 -133q0 -77 -55 -134q-55 -55 -133 -55q-77 0 -134 55q-55 57 -55 134zM537 1412q0 -45 32 -77t77 -32t77 32t32 77t-32 77t-77 32t-77 -32t-32 -77z" />
<glyph unicode="&#xe6;" horiz-adv-x="2240" d="M71 560q0 232 164 396t396 164t396 -164q47 -47 102 -134q26 42 51 75.5t50 58.5q164 164 397 164q232 0 396 -164t164 -396q0 -26 -18.5 -44t-44.5 -18h-931q30 -152 126 -246q128 -128 308 -128q81 0 151.5 26.5t128.5 76.5q17 14 39 14q26 0 44 -18.5t18 -44.5 q0 -28 -16 -43q-156 -135 -365 -135q-233 0 -436 203v-141q0 -26 -18 -44t-44 -18t-44 18t-18 44v141q-203 -203 -436 -203q-232 0 -396 164t-164 396zM195 560q0 -180 128 -308t308 -128t308 128t128 308t-128 308t-308 128t-308 -128t-128 -308zM1193 622h867 q-30 151 -125 246q-130 128 -308 128q-180 0 -308 -128q-50 -49 -80.5 -110t-45.5 -136z" />
<glyph unicode="&#xe7;" horiz-adv-x="1120" d="M93 560q0 232 164 396t396 164q103 0 196.5 -35t168.5 -100q9 -9 15.5 -22t6.5 -27q0 -26 -18 -44t-44 -18q-24 0 -40 15q-122 107 -285 107q-180 0 -308 -128q-127 -127 -127 -308t127 -308q128 -128 308 -128q79 0 152.5 29t132.5 78q15 12 37 12q26 0 44 -18.5 t18 -44.5t-19 -45q-76 -65 -169 -100t-196 -35q-232 0 -396 164t-164 396zM336 -327q0 26 18 44t44 18q19 0 34 -9l81 -51q24 -12 51 -12q43 0 73.5 19.5t30.5 52.5q0 34 -30.5 53.5t-73.5 19.5q-26 0 -44 18t-18 44q0 11 3 20l40 143q5 15 17 27q17 17 43 17t44.5 -18 t18.5 -44q0 -8 -2 -16l-21 -78q51 -22 82 -46q65 -57 65 -140q0 -81 -66 -139q-67 -58 -162 -58q-53 0 -109 28l-91 54q-28 20 -28 53z" />
<glyph unicode="&#xe8;" d="M80 560q0 232 164 396t396 164t396 -164t164 -396q0 -26 -18 -44t-44 -18h-932q30 -150 126 -246q128 -128 308 -128q82 0 152 26.5t128 76.5q17 14 39 14q26 0 44 -18.5t18 -44.5t-16 -43q-156 -135 -365 -135q-232 0 -396 164t-164 396zM206 622h867q-28 149 -125 246 q-128 128 -308 128t-308 -128q-96 -96 -126 -246zM426 1539q0 26 18 44t44 18t44 -18l252 -252q15 -17 15 -41q0 -26 -18 -44.5t-44 -18.5q-24 0 -43 16l-252 252q-8 9 -12 20.5t-4 23.5z" />
<glyph unicode="&#xe9;" d="M80 560q0 232 164 396t396 164t396 -164t164 -396q0 -26 -18 -44t-44 -18h-932q30 -150 126 -246q128 -128 308 -128q82 0 152 26.5t128 76.5q17 14 39 14q26 0 44 -18.5t18 -44.5t-16 -43q-156 -135 -365 -135q-232 0 -396 164t-164 396zM206 622h867q-28 149 -125 246 q-128 128 -308 128t-308 -128q-96 -96 -126 -246zM480 1288q0 25 14 41l252 252q18 18 45 18q26 0 44 -18t18 -44q0 -12 -4 -23.5t-13 -20.5l-252 -252q-17 -16 -42 -16q-26 0 -44 18.5t-18 44.5z" />
<glyph unicode="&#xea;" d="M80 560q0 232 164 396t396 164t396 -164t164 -396q0 -26 -18 -44t-44 -18h-932q30 -150 126 -246q128 -128 308 -128q82 0 152 26.5t128 76.5q17 14 39 14q26 0 44 -18.5t18 -44.5t-16 -43q-156 -135 -365 -135q-232 0 -396 164t-164 396zM206 622h867q-28 149 -125 246 q-128 128 -308 128t-308 -128q-96 -96 -126 -246zM324 1348q0 32 32 55l248 165q14 8 31 8q18 0 32 -8l247 -165q33 -23 33 -55q0 -26 -18.5 -44t-44.5 -18q-22 0 -40 13l-209 139l-209 -139q-18 -13 -39 -13q-26 0 -44.5 18t-18.5 44z" />
<glyph unicode="&#xeb;" d="M80 560q0 232 164 396t396 164t396 -164t164 -396q0 -26 -18 -44t-44 -18h-932q30 -150 126 -246q128 -128 308 -128q82 0 152 26.5t128 76.5q17 14 39 14q26 0 44 -18.5t18 -44.5t-16 -43q-156 -135 -365 -135q-232 0 -396 164t-164 396zM206 622h867q-28 149 -125 246 q-128 128 -308 128t-308 -128q-96 -96 -126 -246zM305 1390q0 34 24 58.5t59 24.5t59 -24.5t24 -58.5q0 -35 -24 -59t-59 -24t-59 24t-24 59zM803 1390q0 34 24 58.5t59 24.5q34 0 58.5 -24.5t24.5 -58.5q0 -35 -24.5 -59t-58.5 -24q-35 0 -59 24t-24 59z" />
<glyph unicode="&#xec;" horiz-adv-x="480" d="M25 1539q0 26 18 44t44 18t44 -18l252 -252q15 -17 15 -41q0 -26 -18 -44.5t-44 -18.5q-24 0 -43 16l-252 252q-8 9 -12 20.5t-4 23.5zM170 62v996q0 26 18 44t44 18t44.5 -18t18.5 -44v-996q0 -26 -18.5 -44t-44.5 -18t-44 18t-18 44z" />
<glyph unicode="&#xed;" horiz-adv-x="480" d="M89 1288q0 25 14 41l252 252q18 18 45 18q26 0 44 -18t18 -44q0 -12 -4 -23.5t-13 -20.5l-252 -252q-17 -16 -42 -16q-26 0 -44 18.5t-18 44.5zM170 62v996q0 26 18 44t44 18t44.5 -18t18.5 -44v-996q0 -26 -18.5 -44t-44.5 -18t-44 18t-18 44z" />
<glyph unicode="&#xee;" horiz-adv-x="560" d="M-30 1348q0 32 32 55l248 165q14 8 31 8q18 0 32 -8l247 -165q33 -23 33 -55q0 -26 -18.5 -44t-44.5 -18q-22 0 -40 13l-209 139l-209 -139q-18 -13 -39 -13q-26 0 -44.5 18t-18.5 44zM211 62v996q0 26 18 44t44 18t44.5 -18t18.5 -44v-996q0 -26 -18.5 -44t-44.5 -18 t-44 18t-18 44z" />
<glyph unicode="&#xef;" horiz-adv-x="600" d="M-28 1390q0 34 24 58.5t59 24.5t59 -24.5t24 -58.5q0 -35 -24 -59t-59 -24t-59 24t-24 59zM230 62v996q0 26 18 44t44 18t44.5 -18t18.5 -44v-996q0 -26 -18.5 -44t-44.5 -18t-44 18t-18 44zM470 1390q0 34 24 58.5t59 24.5q34 0 58.5 -24.5t24.5 -58.5q0 -35 -24.5 -59 t-58.5 -24q-35 0 -59 24t-24 59z" />
<glyph unicode="&#xf0;" d="M80 560q0 232 164 396t396 164q41 0 89.5 -7.5t108.5 -24.5l-143 247l-163 -95q-14 -8 -30 -8q-34 0 -52 28q-10 17 -10 34q0 16 8 31t22 23l163 95l-45 76q-10 20 -10 37q0 26 18 44t44 18q35 0 53 -28l48 -83l159 92q14 8 31 8t31.5 -7.5t22.5 -22.5q8 -12 8 -32 q0 -16 -8 -30.5t-22 -23.5l-159 -93q207 -358 248.5 -430t80.5 -139q32 -59 49.5 -128t17.5 -141q0 -232 -164 -396t-396 -164t-396 164t-164 396zM204 560q0 -180 128 -308t308 -128t308 128q127 127 127 308t-127 308q-128 128 -308 128t-308 -128t-128 -308z" />
<glyph unicode="&#xf1;" horiz-adv-x="1200" d="M81 62v996q0 26 18 44t44 18t44 -18t18 -44v-116q184 178 394 178q216 0 366 -152q153 -152 153 -367v-539q0 -26 -18.5 -44t-44.5 -18t-44 18t-18 44v539q0 165 -116 278q-116 117 -278 117t-279 -117q-115 -114 -115 -278v-539q0 -26 -18 -44t-44 -18t-44 18t-18 44z M203 1415q0 26 18 44.5t44 18.5q25 0 43 -17q56 -56 132 -56q67 0 116 40q88 79 208 79q129 0 220 -91q17 -18 17 -44t-18 -44t-44 -18t-44 17q-54 56 -131 56q-65 0 -118 -42q-87 -78 -206 -78q-129 0 -221 92q-8 9 -12 20.5t-4 22.5z" />
<glyph unicode="&#xf2;" d="M80 560q0 232 164 396t396 164t396 -164t164 -396t-164 -396t-396 -164t-396 164t-164 396zM204 560q0 -180 128 -308t308 -128t308 128q127 127 127 308t-127 308q-128 128 -308 128t-308 -128t-128 -308zM426 1539q0 26 18 44t44 18t44 -18l252 -252q15 -17 15 -41 q0 -26 -18 -44.5t-44 -18.5q-24 0 -43 16l-252 252q-8 9 -12 20.5t-4 23.5z" />
<glyph unicode="&#xf3;" d="M80 560q0 232 164 396t396 164t396 -164t164 -396t-164 -396t-396 -164t-396 164t-164 396zM204 560q0 -180 128 -308t308 -128t308 128q127 127 127 308t-127 308q-128 128 -308 128t-308 -128t-128 -308zM479 1288q0 25 14 41l252 252q18 18 45 18q26 0 44 -18t18 -44 q0 -12 -4 -23.5t-13 -20.5l-252 -252q-17 -16 -42 -16q-26 0 -44 18.5t-18 44.5z" />
<glyph unicode="&#xf4;" d="M80 560q0 232 164 396t396 164t396 -164t164 -396t-164 -396t-396 -164t-396 164t-164 396zM204 560q0 -180 128 -308t308 -128t308 128q127 127 127 308t-127 308q-128 128 -308 128t-308 -128t-128 -308zM324 1348q0 32 32 55l248 165q14 8 31 8q18 0 32 -8l247 -165 q33 -23 33 -55q0 -26 -18.5 -44t-44.5 -18q-22 0 -40 13l-209 139l-209 -139q-18 -13 -39 -13q-26 0 -44.5 18t-18.5 44z" />
<glyph unicode="&#xf5;" d="M80 560q0 232 164 396t396 164t396 -164t164 -396t-164 -396t-396 -164t-396 164t-164 396zM204 560q0 -180 128 -308t308 -128t308 128q127 127 127 308t-127 308q-128 128 -308 128t-308 -128t-128 -308zM238 1415q0 26 18 44.5t44 18.5q25 0 43 -17q56 -56 132 -56 q67 0 116 40q88 79 208 79q129 0 220 -91q17 -18 17 -44t-18 -44t-44 -18t-44 17q-54 56 -131 56q-65 0 -118 -42q-87 -78 -206 -78q-129 0 -221 92q-8 9 -12 20.5t-4 22.5z" />
<glyph unicode="&#xf6;" d="M80 560q0 232 164 396t396 164t396 -164t164 -396t-164 -396t-396 -164t-396 164t-164 396zM204 560q0 -180 128 -308t308 -128t308 128q127 127 127 308t-127 308q-128 128 -308 128t-308 -128t-128 -308zM305 1390q0 34 24 58.5t59 24.5t59 -24.5t24 -58.5 q0 -35 -24 -59t-59 -24t-59 24t-24 59zM803 1390q0 34 24 58.5t59 24.5q34 0 58.5 -24.5t24.5 -58.5q0 -35 -24.5 -59t-58.5 -24q-35 0 -59 24t-24 59z" />
<glyph unicode="&#xf7;" horiz-adv-x="960" d="M83 726q0 26 18 44t44 18h664q26 0 44 -18t18 -44t-18 -44t-44 -18h-664q-26 0 -44 18t-18 44zM394 415q0 34 24 58.5t59 24.5t59 -24.5t24 -58.5q0 -35 -24 -59t-59 -24t-59 24t-24 59zM394 1037q0 35 24 59t59 24t59 -24t24 -59t-24 -59t-59 -24t-59 24t-24 59z" />
<glyph unicode="&#xf8;" d="M80 62q0 26 16 44l105 105q-121 155 -121 349q0 232 164 396t396 164q193 0 350 -121l101 100q19 21 47 21q26 0 44 -18t18 -44t-17 -44l-104 -105q121 -157 121 -349q0 -232 -164 -396t-396 -164q-193 0 -350 121l-103 -103q-19 -18 -45 -18t-44 18t-18 44zM204 560 q0 -132 85 -261l612 610q-128 87 -261 87q-180 0 -308 -128t-128 -308zM379 209q129 -85 261 -85q180 0 308 128q127 127 127 308q0 132 -85 261z" />
<glyph unicode="&#xf9;" horiz-adv-x="1200" d="M81 519v539q0 26 18 44t44 18t44 -18t18 -44v-539q0 -164 115 -279q119 -116 279 -116q162 0 278 116q116 115 116 279v539q0 26 18 44t44 18t44.5 -18t18.5 -44v-996q0 -26 -18.5 -44t-44.5 -18t-44 18t-18 44v116q-184 -178 -394 -178q-213 0 -367 151 q-151 152 -151 368zM419 1539q0 26 18 44t44 18t44 -18l252 -252q15 -17 15 -41q0 -26 -18 -44.5t-44 -18.5q-24 0 -43 16l-252 252q-8 9 -12 20.5t-4 23.5z" />
<glyph unicode="&#xfa;" horiz-adv-x="1200" d="M81 519v539q0 26 18 44t44 18t44 -18t18 -44v-539q0 -164 115 -279q119 -116 279 -116q162 0 278 116q116 115 116 279v539q0 26 18 44t44 18t44.5 -18t18.5 -44v-996q0 -26 -18.5 -44t-44.5 -18t-44 18t-18 44v116q-184 -178 -394 -178q-213 0 -367 151 q-151 152 -151 368zM407 1288q0 25 14 41l252 252q18 18 45 18q26 0 44 -18t18 -44q0 -12 -4 -23.5t-13 -20.5l-252 -252q-17 -16 -42 -16q-26 0 -44 18.5t-18 44.5z" />
<glyph unicode="&#xfb;" horiz-adv-x="1200" d="M81 519v539q0 26 18 44t44 18t44 -18t18 -44v-539q0 -164 115 -279q119 -116 279 -116q162 0 278 116q116 115 116 279v539q0 26 18 44t44 18t44.5 -18t18.5 -44v-996q0 -26 -18.5 -44t-44.5 -18t-44 18t-18 44v116q-184 -178 -394 -178q-213 0 -367 151 q-151 152 -151 368zM284 1348q0 32 32 55l248 165q14 8 31 8q18 0 32 -8l247 -165q33 -23 33 -55q0 -26 -18.5 -44t-44.5 -18q-22 0 -40 13l-209 139l-209 -139q-18 -13 -39 -13q-26 0 -44.5 18t-18.5 44z" />
<glyph unicode="&#xfc;" horiz-adv-x="1200" d="M81 519v539q0 26 18 44t44 18t44 -18t18 -44v-539q0 -164 115 -279q119 -116 279 -116q162 0 278 116q116 115 116 279v539q0 26 18 44t44 18t44.5 -18t18.5 -44v-996q0 -26 -18.5 -44t-44.5 -18t-44 18t-18 44v116q-184 -178 -394 -178q-213 0 -367 151 q-151 152 -151 368zM265 1390q0 34 24 58.5t59 24.5t59 -24.5t24 -58.5q0 -35 -24 -59t-59 -24t-59 24t-24 59zM763 1390q0 34 24 58.5t59 24.5q34 0 58.5 -24.5t24.5 -58.5q0 -35 -24.5 -59t-58.5 -24q-35 0 -59 24t-24 59z" />
<glyph unicode="&#xfd;" horiz-adv-x="1120" d="M81 1058q0 26 18.5 44t44.5 18t44 -18q9 -9 15 -25l355 -850l355 850q6 16 17 27q16 16 43 16q26 0 44 -18t19 -44q0 -10 -4 -22l-616 -1474q-5 -14 -14 -23q-19 -19 -45 -19t-44 18t-18 44q0 13 4 22l191 459l-405 970q-4 13 -4 25zM434 1288q0 25 14 41l252 252 q18 18 45 18q26 0 44 -18t18 -44q0 -12 -4 -23.5t-13 -20.5l-252 -252q-17 -16 -42 -16q-26 0 -44 18.5t-18 44.5z" />
<glyph unicode="&#xfe;" d="M80 -418v1956q0 26 18 44t44 18t44 -18t18 -44v-619q203 203 436 203q232 0 396 -164t164 -396t-164 -396t-396 -164q-233 0 -436 203v-623q0 -26 -18 -44t-44 -18t-44 18t-18 44zM204 562q0 -180 128 -308q127 -127 308 -127t308 127t127 308t-127 308 q-128 128 -308 128t-308 -128t-128 -308z" />
<glyph unicode="&#xff;" horiz-adv-x="1120" d="M81 1058q0 26 18.5 44t44.5 18t44 -18q9 -9 15 -25l355 -850l355 850q6 16 17 27q16 16 43 16q26 0 44 -18t19 -44q0 -10 -4 -22l-616 -1474q-5 -14 -14 -23q-19 -19 -45 -19t-44 18t-18 44q0 13 4 22l191 459l-405 970q-4 13 -4 25zM225 1390q0 34 24 58.5t59 24.5 t59 -24.5t24 -58.5q0 -35 -24 -59t-59 -24t-59 24t-24 59zM723 1390q0 34 24 58.5t59 24.5q34 0 58.5 -24.5t24.5 -58.5q0 -35 -24.5 -59t-58.5 -24q-35 0 -59 24t-24 59z" />
<glyph unicode="&#x152;" horiz-adv-x="2160" d="M77 800q0 331 234 565q234 235 566 235h1149q26 0 44 -18t18 -44q0 -25 -18 -43t-44 -18h-924v-615h678q26 0 44 -18t18 -44t-18 -44.5t-44 -18.5h-678v-614h923q26 0 44 -18t18 -43q0 -26 -18 -44t-44 -18h-1148q-164 0 -307 61t-259 173q-112 117 -173 260t-61 306z M200 800q0 -282 198 -479q198 -198 479 -198h102v1354h-102q-280 0 -479 -199q-198 -197 -198 -478z" />
<glyph unicode="&#x153;" horiz-adv-x="2240" d="M71 560q0 232 164 396t396 164t396 -164q47 -47 103 -136q25 44 50 77.5t50 58.5q164 164 397 164q232 0 396 -164t164 -396q0 -26 -18.5 -44t-44.5 -18h-931q30 -152 126 -246q128 -128 308 -128q81 0 151.5 26.5t128.5 76.5q17 14 39 14q26 0 44 -18.5t18 -44.5 t-19 -44q-153 -134 -362 -134q-233 0 -397 164q-57 60 -98 136q-44 -76 -105 -136q-164 -164 -396 -164t-396 164t-164 396zM195 560q0 -180 128 -308t308 -128t308 128t128 308t-128 308t-308 128t-308 -128t-128 -308zM1193 622h867q-30 151 -125 246q-130 128 -308 128 q-180 0 -308 -128q-50 -49 -80.5 -110t-45.5 -136z" />
<glyph unicode="&#x178;" d="M94 1538q0 26 18 44t44 18q30 0 49 -25l443 -664l443 664q18 25 50 25q25 0 43 -18t18 -44q0 -20 -10 -34l-482 -722v-720q0 -26 -18 -44t-44 -18t-43.5 18t-17.5 44v720l-483 722q-10 16 -10 34zM318 1870q0 34 24 58.5t59 24.5t59 -24.5t24 -58.5q0 -35 -24 -59 t-59 -24t-59 24t-24 59zM816 1870q0 34 24 58.5t59 24.5q34 0 58.5 -24.5t24.5 -58.5q0 -35 -24.5 -59t-58.5 -24q-35 0 -59 24t-24 59z" />
<glyph unicode="&#x2c6;" horiz-adv-x="800" d="M84 1348q0 32 32 55l248 165q14 8 31 8q18 0 32 -8l247 -165q33 -23 33 -55q0 -26 -18.5 -44t-44.5 -18q-22 0 -40 13l-209 139l-209 -139q-18 -13 -39 -13q-26 0 -44.5 18t-18.5 44z" />
<glyph unicode="&#x2dc;" horiz-adv-x="960" d="M74 1415q0 26 18 44.5t44 18.5q25 0 43 -17q56 -56 132 -56q67 0 116 40q88 79 208 79q129 0 220 -91q17 -18 17 -44t-18 -44t-44 -18t-44 17q-54 56 -131 56q-65 0 -118 -42q-87 -78 -206 -78q-129 0 -221 92q-8 9 -12 20.5t-4 22.5z" />
<glyph unicode="&#x2000;" horiz-adv-x="1040" />
<glyph unicode="&#x2001;" horiz-adv-x="2081" />
<glyph unicode="&#x2002;" horiz-adv-x="1040" />
<glyph unicode="&#x2003;" horiz-adv-x="2081" />
<glyph unicode="&#x2004;" horiz-adv-x="693" />
<glyph unicode="&#x2005;" horiz-adv-x="520" />
<glyph unicode="&#x2006;" horiz-adv-x="346" />
<glyph unicode="&#x2007;" horiz-adv-x="346" />
<glyph unicode="&#x2008;" horiz-adv-x="260" />
<glyph unicode="&#x2009;" horiz-adv-x="416" />
<glyph unicode="&#x200a;" horiz-adv-x="115" />
<glyph unicode="&#x2010;" horiz-adv-x="800" d="M79 560q0 26 18.5 44t44.5 18h497q26 0 44.5 -18t18.5 -44t-18.5 -44t-44.5 -18h-497q-26 0 -44.5 18t-18.5 44z" />
<glyph unicode="&#x2011;" horiz-adv-x="800" d="M79 560q0 26 18.5 44t44.5 18h497q26 0 44.5 -18t18.5 -44t-18.5 -44t-44.5 -18h-497q-26 0 -44.5 18t-18.5 44z" />
<glyph unicode="&#x2012;" horiz-adv-x="800" d="M79 560q0 26 18.5 44t44.5 18h497q26 0 44.5 -18t18.5 -44t-18.5 -44t-44.5 -18h-497q-26 0 -44.5 18t-18.5 44z" />
<glyph unicode="&#x2013;" horiz-adv-x="800" d="M-82 560q0 26 18.5 44t44.5 18h829q26 0 44 -18t18 -44t-18 -44t-44 -18h-829q-26 0 -44.5 18t-18.5 44z" />
<glyph unicode="&#x2014;" horiz-adv-x="1920" d="M-92 560q0 26 18 44t44 18h1991q26 0 44.5 -18t18.5 -44t-18.5 -44t-44.5 -18h-1991q-26 0 -44 18t-18 44z" />
<glyph unicode="&#x2018;" horiz-adv-x="480" d="M129 1233q0 85 40.5 177t111.5 180q11 11 28 11t29 -12t12 -29q0 -8 -4 -18q-26 -65 -40 -126.5t-14 -121.5q0 -58 13 -113t38 -107q7 -16 7 -33q0 -35 -24.5 -59t-58.5 -24q-51 0 -76 49q-62 109 -62 226z" />
<glyph unicode="&#x2019;" horiz-adv-x="480" d="M129 1000q0 8 4 18q26 65 40 126.5t14 121.5q0 58 -13 113t-38 107q-7 16 -7 33q0 35 24.5 59t58.5 24q51 0 76 -49q62 -109 62 -226q0 -85 -40.5 -177t-111.5 -180q-11 -11 -28 -11t-29 12t-12 29z" />
<glyph unicode="&#x201a;" horiz-adv-x="480" d="M129 237q0 35 24.5 59t58.5 24q51 0 76 -49q62 -109 62 -226q0 -85 -40.5 -177t-111.5 -180q-11 -11 -28 -11t-29 12t-12 29q0 8 4 18q26 65 40 126.5t14 121.5q0 58 -13 113t-38 107q-7 16 -7 33z" />
<glyph unicode="&#x201c;" horiz-adv-x="760" d="M80 1233q0 85 40.5 177t111.5 180q11 11 28 11t29 -12t12 -29q0 -8 -4 -18q-26 -65 -40 -126.5t-14 -121.5q0 -58 13 -113t38 -107q7 -16 7 -33q0 -35 -24.5 -59t-58.5 -24q-51 0 -76 49q-62 109 -62 226zM438 1233q0 85 40.5 177t111.5 180q11 11 28 11t29 -12t12 -29 q0 -8 -4 -18q-26 -65 -40 -126.5t-14 -121.5q0 -58 13 -113t38 -107q7 -16 7 -33q0 -35 -24.5 -59t-58.5 -24q-51 0 -76 49q-62 109 -62 226z" />
<glyph unicode="&#x201d;" horiz-adv-x="760" d="M80 999q0 8 4 18q26 65 40 126.5t14 121.5q0 58 -13 113t-38 107q-7 16 -7 33q0 35 24.5 59t58.5 24q51 0 76 -49q62 -109 62 -226q0 -85 -40.5 -177t-111.5 -180q-11 -11 -28 -11t-29 12t-12 29zM438 999q0 8 4 18q26 65 40 126.5t14 121.5q0 58 -13 113t-38 107 q-7 16 -7 33q0 35 24.5 59t58.5 24q51 0 76 -49q62 -109 62 -226q0 -85 -40.5 -177t-111.5 -180q-11 -11 -28 -11t-29 12t-12 29z" />
<glyph unicode="&#x201e;" horiz-adv-x="760" d="M80 237q0 35 24.5 59t58.5 24q51 0 76 -49q62 -109 62 -226q0 -85 -40.5 -177t-111.5 -180q-11 -11 -28 -11t-29 12t-12 29q0 8 4 18q26 65 40 126.5t14 121.5q0 58 -13 113t-38 107q-7 16 -7 33zM438 237q0 35 24.5 59t58.5 24q51 0 76 -49q62 -109 62 -226 q0 -85 -40.5 -177t-111.5 -180q-11 -11 -28 -11t-29 12t-12 29q0 8 4 18q26 65 40 126.5t14 121.5q0 58 -13 113t-38 107q-7 16 -7 33z" />
<glyph unicode="&#x2022;" horiz-adv-x="800" d="M167 809q0 94 67 161t161 67t161 -67q68 -68 68 -161q0 -94 -68 -162q-66 -66 -161 -66t-161 66q-67 67 -67 162z" />
<glyph unicode="&#x2026;" horiz-adv-x="1440" d="M79 104q0 44 30 73q30 30 74 30t73 -30q31 -29 31 -73q0 -43 -31 -74q-29 -30 -73 -30t-74 30t-30 74zM557 104q0 44 30 73q30 30 74 30t73 -30q30 -29 30 -73t-30 -74q-29 -30 -73 -30t-74 30t-30 74zM1035 104q0 44 30 73q28 30 73 30q44 0 74 -30q30 -29 30 -73 t-30 -74t-74 -30q-45 0 -73 30q-30 30 -30 74z" />
<glyph unicode="&#x202f;" horiz-adv-x="416" />
<glyph unicode="&#x2039;" horiz-adv-x="560" d="M83 559q0 16 8 31l245 490q7 14 14 21q18 18 44 18t44 -18t18 -44q0 -15 -5 -26l-236 -471l236 -472q5 -11 5 -26q0 -26 -18 -44t-44 -18q-25 0 -40 14q-9 9 -18 24l-243 486q-10 19 -10 35z" />
<glyph unicode="&#x203a;" horiz-adv-x="560" d="M83 62q0 15 5 26l236 472l-236 471q-5 11 -5 26q0 26 18 44t44 18t44 -18q7 -7 14 -21l245 -490q8 -15 8 -31t-10 -35l-243 -486q-9 -15 -18 -24q-15 -14 -40 -14q-26 0 -44 18t-18 44z" />
<glyph unicode="&#x205f;" horiz-adv-x="520" />
<glyph unicode="&#x20ac;" horiz-adv-x="1480" d="M78 809q0 335 236 571q238 238 573 238q290 0 512 -184q19 -18 19 -44t-18 -44.5t-44 -18.5t-51 25q-174 141 -418 141q-284 0 -483 -200q-54 -53 -94.5 -116.5t-70.5 -139.5h980q26 0 44 -18t18 -44t-18 -44t-44 -18h-1010q-7 -55 -7 -104q0 -54 7 -104h1010 q26 0 44 -18t18 -44t-18 -44t-44 -18h-980q60 -152 165 -255q200 -202 483 -202q244 0 428 151q13 9 34 9q26 0 44.5 -18t18.5 -44t-16 -42q-113 -88 -241 -134t-268 -46q-165 0 -310 62t-263 174q-112 118 -174 263t-62 310z" />
<glyph unicode="&#x2122;" horiz-adv-x="1500" d="M59 999q0 11 8.5 18t19.5 7h480q12 0 20 -7t8 -18q0 -10 -8 -17t-20 -7h-212v-566q0 -11 -8 -18t-20 -7q-11 0 -19.5 7t-8.5 18v566h-212q-11 0 -19.5 7t-8.5 17zM329 409v590q0 11 8 18t20 7q17 0 24 -13l308 -547l308 547q8 13 25 13q11 0 19 -7t8 -18v-590 q0 -11 -8 -18t-19 -7q-12 0 -20 7t-8 18v486l-281 -499q-8 -12 -24 -12q-18 0 -26 16l-279 495v-486q0 -11 -7.5 -18t-19.5 -7t-20 7t-8 18z" />
</font>
</defs>
</svg>
